<?xml version="1.0" standalone="no"?>
<!DOCTYPE svg PUBLIC "-//W3C//DTD SVG 1.1//EN" "http://www.w3.org/Graphics/SVG/1.1/DTD/svg11.dtd" >
<svg xmlns="http://www.w3.org/2000/svg">
<metadata>Generated by IcoMoon</metadata>
<defs>
<font id="Default" horiz-adv-x="1024">
<font-face units-per-em="1024" ascent="870.4" descent="-153.6" />
<missing-glyph horiz-adv-x="1024" />
<glyph unicode="&#x20;" horiz-adv-x="0" d="" />
<glyph unicode="&#x21;" glyph-name="uni21" d="M510 838c-148 0-268-118-268-264 0-74 32-156 86-220 0 0 0 0 0-2 2 0 58-72 68-130-6-4-8-8-8-14v-192c0-10 8-18 18-18h34l30-34c2-4 8-6 12-6h54c6 0 10 2 14 6l28 34h36c10 0 18 8 18 18v192c0 6-4 10-8 14 8 58 66 130 66 130 2 2 2 4 4 4 50 64 82 144 82 218 0 146-120 264-266 264zM596 34h-26c-4 0-10-2-14-6l-28-34h-38l-28 34c-4 4-8 6-14 6h-24v156h172v-156zM662 376c-2-2-2-4-2-6-14-16-64-84-72-146h-60v198c4-2 10-2 14-2 22 0 48 12 66 30 32 34 38 80 14 104-10 8-22 14-36 14-22 0-46-12-66-32-4-4-8-10-10-14-4 4-8 10-12 14-18 20-44 32-66 32-14 0-26-6-36-14-24-24-18-70 14-104 20-18 44-30 66-30 6 0 10 0 16 2v-198h-60c-10 64-62 134-74 148 0 2 0 2-2 4-48 56-78 132-78 198 0 126 104 228 232 228 126 0 230-102 230-228 0-66-30-142-78-198zM528 478c2 10 8 22 18 32 12 14 28 22 40 22 4 0 8-2 12-4 8-8 4-32-16-52-12-12-26-20-40-20-4 0-8 0-10 2-6 6-4 16-4 20zM488 458c-4-2-8-2-12-2-12 0-28 8-40 20-18 20-24 44-14 52 2 2 6 4 10 4 12 0 28-8 40-22 10-10 16-22 18-32 2-4 2-14-2-20z" />
<glyph unicode="&#x22;" glyph-name="uni22" d="M716 514l-414-114c-8-2-14-10-14-20 2-8 10-14 18-14v0c6 0 124-4 142-136h-38c-10 0-16-6-18-16-20-104 16-168 62-186l10-56c2-8 8-14 18-14h64c8 0 16 6 18 14l10 56c46 18 82 82 62 186-2 10-10 16-18 16h-36c16 110 114 112 120 112 0 0 0 0 0 0 10 0 18 8 18 18s-8 18-18 18c0 0 0 0 0 0-4 0-140-2-156-148h-62c-10 92-60 134-106 154l348 94c10 4 16 14 12 22-2 10-12 16-22 14zM554 60c-8-2-14-8-14-14l-8-52h-36l-8 52c0 6-6 12-14 14-24 6-64 40-50 134h180c14-94-26-128-50-134zM306 508c2 0 4 0 6 0l414 114c10 2 16 12 12 22-2 10-12 14-22 12l-414-112c-10-4-16-14-12-22 2-8 8-14 16-14zM306 650c2 0 4 0 6 2l270 78c2 2 30 12 44 40 10 18 10 38 2 60-4 10-14 14-22 12-10-4-16-14-12-24 14-38-18-52-24-54l-268-78c-10-4-16-14-12-22 2-8 8-14 16-14z" />
<glyph unicode="&#x23;" glyph-name="numbersign" horiz-adv-x="1064" d="M15.36 353.024h513.024v-513.024h-513.024v513.024zM536.576 350.976v513.024h512v-513.024h-512z" />
<glyph unicode="&#x24;" glyph-name="uni24" d="M580 844c-46 0-84-42-84-94v-456c0-10 8-18 18-18s18 8 18 18v456c0 32 22 58 48 58 28 0 50-26 50-58v-456c0-10 8-18 18-18s18 8 18 18v456c0 52-38 94-86 94zM400 294v456c0 32 22 58 50 58 10 0 18 8 18 18s-8 18-18 18c-48 0-86-42-86-94v-456c0-10 8-18 18-18s18 8 18 18zM620 230h-210c-8 0-16-6-16-14-22-104 16-168 62-186l10-56c0-8 8-14 16-14h66c8 0 16 6 18 14l8 56c46 18 84 82 64 186-2 8-10 14-18 14zM554 62c-6-2-12-8-14-14l-8-52h-34l-8 52c-2 6-8 12-14 14-24 4-64 40-50 134h178c14-94-26-130-50-134z" />
<glyph unicode="&#x25;" glyph-name="uni25" d="M828 724c0 0 0 0 0 2-10 62-54 124-128 124h-384c-72 0-116-62-128-124 0-2 0-2 0-2l-20-372v-142c0-10 2-20 4-30 0 0 0 0 0 0 4-14 8-26 16-40v-110c0-34 28-62 62-62h70c34 0 62 28 62 62v50h242v-50c0-34 28-62 62-62h70c34 0 64 28 64 62v96c18 26 28 56 28 84v144zM316 814h384c46 0 74-34 86-70h-556c14 38 44 70 86 70zM222 708h572l18-356v-4h-608v4zM346 30c0-14-12-26-26-26h-70c-14 0-26 12-26 26v50h122zM224 116v30c0 4-2 6-4 10-6 10-10 20-14 32 0 0 0 0 0 0 0 8-2 16-2 22v102h608v-102c0-22-10-46-24-66-4-2-4-6-4-10v-18zM756 4h-70c-14 0-26 12-26 26v50h124v-50c0-14-14-26-28-26zM330 292c-40 0-72-32-72-72s32-74 72-74c40 0 74 34 74 74s-34 72-74 72zM330 182c-20 0-36 16-36 38 0 20 16 36 36 36s38-16 38-36c0-22-18-38-38-38zM758 220c0 40-32 72-72 72s-74-32-74-72c0-40 34-74 74-74s72 34 72 74zM648 220c0 20 18 36 38 36s36-16 36-36c0-22-16-38-36-38s-38 16-38 38zM430 760h158c10 0 18 8 18 18s-8 18-18 18h-158c-10 0-18-8-18-18s8-18 18-18zM118 660c-10 0-18-8-18-18v-146c0-10 8-18 18-18s18 8 18 18v146c0 10-8 18-18 18zM902 660c-10 0-18-8-18-18v-146c0-10 8-18 18-18s18 8 18 18v146c0 10-8 18-18 18z" />
<glyph unicode="&#x26;" glyph-name="uni26" d="M952 90c-106 102-256 162-308 162 0 0-2 0-2 0-10 0-18-8-18-18 2-10 10-18 20-18h8c18-10 144-24 274-152v-64h-312c-10 0-18-8-18-18s8-18 18-18h312c20 0 36 16 36 36v64c0 10-4 18-10 26zM420 0h-312v64c104 100 244 152 286 152 8 0 18 8 18 18s-8 18-18 18c0 0-2 0-2 0-44 0-192-50-308-162-8-8-12-16-12-26v-64c0-20 16-36 36-36h312c10 0 18 8 18 18s-8 18-18 18zM334 476c6-46 28-94 62-128v-50c0-6 0-10 2-14 4-6 10-10 16-10 4 0 6 0 8 2 8 4 12 14 10 22v56c0 6-2 10-6 14-34 32-56 80-58 126-2 8-10 16-18 16-10 0-16 8-16 16s4 14 10 16c8 4 12 14 8 22-6 20-8 40-8 60 0 104 78 188 174 188s174-84 174-188c0-20-2-40-10-60-2-8 2-18 10-22 6-2 10-8 10-16s-8-16-16-16c-10 0-18-8-18-16-4-48-26-96-60-128-2-4-4-8-4-14v-54c-4-8 0-18 8-22s20 0 24 8c2 4 4 8 4 14v48c32 34 56 82 62 130 20 8 36 28 36 50 0 16-6 30-18 40 6 20 8 38 8 58 0 124-94 222-210 222s-210-98-210-222c0-20 2-38 6-58-10-10-16-24-16-40 0-22 14-42 36-50zM578 114c32 58 36 94 14 112-38 30-112 28-148 0-22-18-18-54 14-112 4-6 10-10 16-10 2 0 2 0 2 0 28 6 56 6 84 2 6-2 14 2 18 8zM484 142c-18 36-20 54-18 56 20 14 36 12 54 14v0c24 0 32-4 50-14 0-2 0-20-18-56-22 4-46 2-68 0zM570 72c-2 10-10 18-20 16-10 0-16-10-16-20l10-90c2-8 10-16 18-16 0 0 2 0 2 2 10 0 18 10 16 18l-10 82zM486 88c-10 0-20-6-20-16l-10-90c-2-8 6-18 16-18 0-2 0-2 2-2 8 0 16 8 18 16l10 90c0 10-6 18-16 20z" />
<glyph unicode="&#x27;" glyph-name="uni27" d="M772 842h-530c-40 0-72-32-72-72v-750c0-38 32-70 72-70h530c40 0 72 32 72 70v750c0 40-32 72-72 72zM808 20c0-20-16-36-36-36h-530c-20 0-36 18-36 36v750c0 20 16 36 36 36h530c20 0 36-16 36-36zM692 700h-368c-16 0-28-12-28-28v-74c0-16 12-28 28-28h368c16 0 30 12 30 28v74c0 16-14 28-30 28zM686 606h-354v58h354v-58zM362 482c-26 0-46-20-46-46 0-24 20-46 46-46 24 0 44 22 44 46 0 26-20 46-44 46zM362 426c-6 0-10 6-10 10 0 6 4 10 10 10 4 0 10-4 10-10 0-4-6-10-10-10zM508 482c-26 0-46-20-46-46 0-24 20-46 46-46s46 22 46 46c0 26-20 46-46 46zM508 426c-6 0-10 6-10 10 0 6 4 10 10 10s10-4 10-10c0-4-4-10-10-10zM654 482c-24 0-46-20-46-46 0-24 22-46 46-46 26 0 46 22 46 46 0 26-20 46-46 46zM654 426c-4 0-10 6-10 10 0 6 6 10 10 10 6 0 10-4 10-10 0-4-4-10-10-10zM362 336c-26 0-46-20-46-46s20-46 46-46c24 0 44 20 44 46s-20 46-44 46zM362 280c-6 0-10 4-10 10s4 10 10 10c4 0 10-4 10-10s-6-10-10-10zM508 336c-26 0-46-20-46-46s20-46 46-46c26 0 46 20 46 46s-20 46-46 46zM508 280c-6 0-10 4-10 10s4 10 10 10c6 0 10-4 10-10s-4-10-10-10zM654 336c-24 0-46-20-46-46s22-46 46-46c26 0 46 20 46 46s-20 46-46 46zM654 280c-4 0-10 4-10 10s6 10 10 10c6 0 10-4 10-10s-4-10-10-10zM362 190c-26 0-46-22-46-46 0-26 20-46 46-46 24 0 44 20 44 46 0 24-20 46-44 46zM362 134c-6 0-10 4-10 10 0 4 4 10 10 10 4 0 10-6 10-10 0-6-6-10-10-10zM508 190c-26 0-46-22-46-46 0-26 20-46 46-46s46 20 46 46c0 24-20 46-46 46zM508 134c-6 0-10 4-10 10 0 4 4 10 10 10s10-6 10-10c0-6-4-10-10-10zM654 190c-24 0-46-22-46-46 0-26 22-46 46-46 26 0 46 20 46 46 0 24-20 46-46 46zM654 134c-4 0-10 4-10 10 0 4 6 10 10 10 6 0 10-6 10-10 0-6-4-10-10-10z" />
<glyph unicode="&#x28;" glyph-name="uni28" d="M770 842h-530c-40 0-72-32-72-72v-750c0-38 32-70 72-70h530c38 0 72 32 72 70v750c0 40-34 72-72 72zM806 20c0-20-16-36-36-36h-530c-20 0-36 18-36 36v750c0 20 16 36 36 36h530c20 0 36-16 36-36zM690 700h-368c-16 0-28-12-28-28v-74c0-16 12-28 28-28h368c16 0 28 12 28 28v74c0 16-12 28-28 28zM682 606h-354v58h354zM466 414h-48v48c0 4-2 8-6 12-2 2-8 4-14 4s-10-2-14-4c-2-4-4-8-4-12v-48h-52c-4 0-8-2-10-6-4-2-6-8-6-12 0-6 2-10 6-14 2-2 6-4 10-4h52v-46c0-6 2-10 4-14 4-4 8-6 14-6s12 2 14 6c4 4 6 8 6 14v46h48c6 0 10 2 14 4 4 4 6 8 6 14s-2 10-6 12c-4 4-8 6-14 6zM680 414h-136c-6 0-8-2-12-6-4-2-6-8-6-12 0-6 2-10 6-14 4-2 6-4 12-4h136c6 0 12 2 16 4 2 4 4 8 4 14 0 4-2 10-4 12-4 4-10 6-16 6zM468 218c0 4-2 10-6 12-4 4-8 6-12 6-6 0-10-2-14-6l-34-34-36 34c-2 4-6 4-10 4-6 0-10-2-14-6s-6-8-6-14c0-4 2-8 4-10l34-34-36-38c-2-2-4-6-4-10 0-6 2-10 6-14s8-6 12-6c4 0 8 2 12 4l36 38 32-32c4-6 10-8 14-8s8 2 12 6c6 6 8 10 8 14 0 6-2 10-6 14l-32 32 32 34c6 4 8 10 8 14zM668 192h-112c-4 0-8 0-10-4-4-4-6-8-6-14s2-10 6-12c2-4 6-6 10-6h112c6 0 10 2 14 6 4 2 4 6 4 12s0 10-4 14c-4 4-8 4-14 4zM636 228c0-12-10-22-22-22s-24 10-24 22c0 12 12 22 24 22s22-10 22-22zM636 120c0-12-10-22-22-22-14 0-24 10-24 22 0 14 10 24 24 24 12 0 22-10 22-24z" />
<glyph unicode="&#x29;" glyph-name="uni29" d="M900 648h-200l-130 108c4 8 6 16 6 26 0 36-30 64-66 64s-64-28-64-64c0-10 2-18 4-26l-128-108h-202c-10 0-18-8-18-18v-656c0-10 8-18 18-18h780c10 0 18 8 18 18v656c0 10-8 18-18 18zM510 810c16 0 30-12 30-28s-14-30-30-30c-16 0-30 14-30 30s14 28 30 28zM474 728c10-8 22-12 36-12s26 4 36 12l96-80h-264zM882-8h-744v490h744zM882 518h-744v94h744zM596 370h10c10 0 18 8 18 18v10c0 8-8 18-18 18h-10c-10 0-18-10-18-18v-10c0-10 8-18 18-18zM690 370h10c10 0 18 8 18 18v10c0 8-8 18-18 18h-10c-10 0-18-10-18-18v-10c0-10 8-18 18-18zM786 370h8c10 0 18 8 18 18v10c0 8-8 18-18 18h-8c-10 0-18-10-18-18v-10c0-10 8-18 18-18zM220 264h10c10 0 18 8 18 18v10c0 10-8 18-18 18h-10c-10 0-18-8-18-18v-10c0-10 8-18 18-18zM314 264h10c10 0 18 8 18 18v10c0 10-8 18-18 18h-10c-10 0-18-8-18-18v-10c0-10 8-18 18-18zM408 264h10c10 0 18 8 18 18v10c0 10-8 18-18 18h-10c-10 0-18-8-18-18v-10c0-10 8-18 18-18zM502 264h10c10 0 18 8 18 18v10c0 10-8 18-18 18h-10c-10 0-18-8-18-18v-10c0-10 8-18 18-18zM596 264h10c10 0 18 8 18 18v10c0 10-8 18-18 18h-10c-10 0-18-8-18-18v-10c0-10 8-18 18-18zM690 264h10c10 0 18 8 18 18v10c0 10-8 18-18 18h-10c-10 0-18-8-18-18v-10c0-10 8-18 18-18zM786 264h8c10 0 18 8 18 18v10c0 10-8 18-18 18h-8c-10 0-18-8-18-18v-10c0-10 8-18 18-18zM220 158h10c10 0 18 8 18 18v10c0 10-8 18-18 18h-10c-10 0-18-8-18-18v-10c0-10 8-18 18-18zM314 158h10c10 0 18 8 18 18v10c0 10-8 18-18 18h-10c-10 0-18-8-18-18v-10c0-10 8-18 18-18zM408 158h10c10 0 18 8 18 18v10c0 10-8 18-18 18h-10c-10 0-18-8-18-18v-10c0-10 8-18 18-18zM502 158h10c10 0 18 8 18 18v10c0 10-8 18-18 18h-10c-10 0-18-8-18-18v-10c0-10 8-18 18-18zM596 158h10c10 0 18 8 18 18v10c0 10-8 18-18 18h-10c-10 0-18-8-18-18v-10c0-10 8-18 18-18zM690 158h10c10 0 18 8 18 18v10c0 10-8 18-18 18h-10c-10 0-18-8-18-18v-10c0-10 8-18 18-18zM786 158h8c10 0 18 8 18 18v10c0 10-8 18-18 18h-8c-10 0-18-8-18-18v-10c0-10 8-18 18-18zM220 54h10c10 0 18 8 18 18v10c0 8-8 16-18 16h-10c-10 0-18-8-18-16v-10c0-10 8-18 18-18zM314 54h10c10 0 18 8 18 18v10c0 8-8 16-18 16h-10c-10 0-18-8-18-16v-10c0-10 8-18 18-18zM408 54h10c10 0 18 8 18 18v10c0 8-8 16-18 16h-10c-10 0-18-8-18-16v-10c0-10 8-18 18-18zM502 54h10c10 0 18 8 18 18v10c0 8-8 16-18 16h-10c-10 0-18-8-18-16v-10c0-10 8-18 18-18zM596 54h10c10 0 18 8 18 18v10c0 8-8 16-18 16h-10c-10 0-18-8-18-16v-10c0-10 8-18 18-18z" />
<glyph unicode="&#x2a;" glyph-name="uni2A" d="M850 846h-678c-58 0-106-48-106-108v-678c0-60 48-108 106-108h678c58 0 106 48 106 108v678c0 60-48 108-106 108zM172 810h678c40 0 70-32 70-72v-134h-818v134c0 40 30 72 70 72zM456 300v108h128v-108zM584 264v-122h-128v122zM420 300h-144v108h144zM620 408h126v-108h-126zM620 444v124h126v-124zM584 444h-128v124h128zM420 444h-144v124h144zM240 444h-138v124h138zM240 408v-108h-138v108zM240 264v-122h-138v122zM276 264h144v-122h-144zM420 106v-118h-144v118zM456 106h128v-118h-128zM620 106h126v-118h-126zM620 142v122h126v-122zM782 264h138v-122h-138zM782 300v108h138v-108zM782 444v124h138v-124zM102 60v46h138v-118h-68c-40 0-70 32-70 72zM850-12h-68v118h138v-46c0-40-30-72-70-72zM312 658c26 0 48 22 48 50s-22 50-48 50c-28 0-50-22-50-50s22-50 50-50zM312 722c6 0 12-6 12-14s-6-14-12-14c-8 0-14 6-14 14s6 14 14 14zM712 658c28 0 50 22 50 50s-22 50-50 50c-26 0-50-22-50-50s24-50 50-50zM712 722c8 0 14-6 14-14s-6-14-14-14c-8 0-14 6-14 14s6 14 14 14z" />
<glyph unicode="&#x2b;" glyph-name="plus2" horiz-adv-x="625" d="M578.56 403.2q30.72 0 30.72-51.2t-30.72-51.2h-215.040v-215.040q0-30.72-51.2-30.72t-51.2 30.72v215.040h-215.040q-30.72 0-30.72 51.2t30.72 51.2h215.040v215.040q0 30.72 51.2 30.72t51.2-30.72v-215.040h215.040z" />
<glyph unicode="&#x2c;" glyph-name="uni2C" horiz-adv-x="745" d="M616.727 480v-58.182h-221.091v-221.091h-58.182v221.091h-221.091v58.182h221.091v221.091h58.182v-221.091h221.091z" />
<glyph unicode="&#x2d;" glyph-name="hyphen" horiz-adv-x="625" d="M578.56 403.2q30.72 0 30.72-51.2t-30.72-51.2h-532.48q-30.72 0-30.72 51.2t30.72 51.2h532.48z" />
<glyph unicode="&#x2e;" glyph-name="uni2E" horiz-adv-x="745" d="M628.727 398.182h-500.727v58.909h500.727v-58.909z" />
<glyph unicode="&#x2f;" glyph-name="uni2F" d="M476 518c0 0 2 0 2 0s2 0 2 0c10 0 18 8 18 18 0 6-4 12-8 14-6 6-8 12-8 20 0 16 10 22 24 30 8 4 16 8 22 14 10-22 18-52 12-66-4-8-2-16 2-20 6-6 14-8 20-4 30 12 64 44 48 124-10 50-32 98-46 122-36 66-50 66-56 66s-12-4-16-8c-6-8-4-18-2-28 10-32-2-44-24-70-20-22-48-52-58-106-8-28-4-52 8-70s32-30 60-36zM442 618c10 44 32 68 50 88 16 16 30 32 36 54 26-44 56-114 50-164-2-4-2-8-2-10-6 28-20 54-28 66-6 10-12 20-24 20-6 0-12-4-14-8-6-6-6-16-6-18 2-4 2-6-14-14-16-10-42-24-44-58 0 0 0 0 0 0-6 10-8 24-4 44zM458 416c-10 0-18-8-18-18v-228c0-10 8-18 18-18s18 8 18 18v228c0 10-8 18-18 18zM714-2h-76c0 2 2 4 2 6v430c0 22-20 42-42 42h-178c-22 0-40-20-40-42v-430c0-2 0-4 0-6h-76c-10 0-18-8-18-18s8-18 18-18h410c10 0 18 8 18 18s-8 18-18 18zM420-2c-2 0-4 2-4 6v430c0 4 2 6 4 6h178c2 0 6-2 6-6v-430c0-4-4-6-6-6h-178z" />
<glyph unicode="&#x30;" glyph-name="zero" horiz-adv-x="1323" d="M635.904 47.872q-68.608 0-116.224 35.328t-73.216 92.672q-63.488-131.072-207.872-131.072-97.28 0-160.768 49.152-62.464 49.152-62.464 141.312h121.856q5.12-40.96 29.696-65.536t66.56-24.576q48.128 0 77.824 33.28t29.696 83.456q0 49.152-28.672 80.896t-76.8 31.744q-38.912 0-66.56-24.576-28.672-25.6-52.224-25.6-45.056 0-81.92 2.048l28.672 164.864q24.576 135.168 29.696 167.936h337.92v-100.352h-248.832q-13.312-68.608-24.576-137.216h3.072q15.36 19.456 49.664 31.744t69.12 12.288q116.736 0 163.84-105.472 22.528 58.368 71.168 94.72t116.224 36.352q45.056 0 89.6-18.432t71.168-44.032q24.576-23.552 64.512-67.584 2.048-3.072 6.144-7.168l7.168-7.168q8.192 10.24 22.528 25.6l18.432 20.48q4.096 5.12 13.824 14.848t18.944 17.92l24.576 19.456q55.296 45.056 135.168 45.056 91.136 0 147.968-61.952t56.832-155.136q0-96.256-56.32-159.744-57.344-64.512-150.528-64.512-118.784 0-231.424 134.144-72.704-72.704-82.944-79.872-4.096-3.072-17.408-11.264l-21.504-14.336q-45.056-29.696-111.616-29.696zM542.72 265.984q0-43.008 26.112-69.632t69.12-26.624q76.8 0 158.72 97.28l-29.696 29.696-19.456 20.48q-9.216 9.216-49.152 32.768-34.816 20.48-64.512 20.48-38.912 0-65.024-31.744t-26.112-72.704zM941.056 265.984q30.72-32.768 48.128-47.616t49.152-32.256q29.696-16.384 62.464-16.384 43.008 0 68.608 28.16t25.6 72.192-26.112 72.192-69.12 28.16q-44.032 0-88.064-33.792z" />
<glyph unicode="&#x31;" glyph-name="uni31" d="M884 622c-26 180-268 220-310 220h-14c-294 0-334-202-338-264-4-42-24-122-54-152-8-8-32-32-20-58 10-26 38-28 56-28-2-4-2-8-4-10 0-6-2-12-2-22 0-12 4-24 14-32-6-14-2-30 12-42 0-2 2-8 2-28 0-60 58-88 104-80h4c8 2 20 4 28 4 12 0 16-4 18-8 6-6 12-12 16-18 14-16 24-26 24-68 0-36 4-52 6-58l2-4c2-8 10-12 16-12 2 0 4 0 6 0l304 90c8 2 14 12 12 20-6 58 0 156 46 238 12 22 22 40 32 56 52 92 62 108 40 256zM812 382c-10-14-20-32-32-54-46-84-56-180-50-246l-272-80c-2 8-2 18-2 34 0 52-14 70-34 92-4 6-8 10-12 16-14 18-34 20-48 20-12 0-24 0-34-2l-4-2c-28-4-62 10-62 46 0 34-4 42-14 54-2 2-4 4 0 10 2 2 4 4 4 6 4 4 4 10 2 16-2 4-8 8-12 10-8 2-8 4-8 6 0 4 0 6 2 12s4 16 6 36c0 8-6 16-14 18-6 2-16 2-24 2-12 0-22 0-22 4-2 4 2 12 12 22 50 48 64 172 64 174 16 214 236 230 302 230h14c32 0 252-34 276-188 18-136 12-148-38-236zM570 614c-46 0-84-38-84-84 0-44 38-82 84-82 44 0 82 38 82 82 0 46-38 84-82 84zM570 484c-26 0-48 22-48 46 0 26 22 48 48 48 24 0 46-22 46-48 0-24-22-46-46-46zM744 572l-36 6c-2 6-4 12-8 18l22 30c6 6 6 14 0 20-10 16-22 28-36 38-8 6-16 6-22 0l-30-22c-6 4-12 6-18 8l-6 36c0 8-6 14-14 16-18 2-36 2-54 0-8-2-14-8-14-16l-6-36c-6-2-12-4-18-8l-30 22c-6 6-14 6-20 0-8-4-14-10-20-16l-2-2c-6-6-12-12-16-18-6-8-6-16 0-22l22-30c-4-6-6-12-8-18l-36-6c-8 0-14-6-16-14 0-8-2-16-2-24v-6c0-8 2-16 2-24 2-8 8-14 16-14l36-6c2-6 4-12 8-18l-22-30c-6-6-6-14 0-22 4-6 10-12 16-18l2-2c6-6 12-12 20-16 6-6 14-6 20 0l30 22c6-4 12-6 18-8l6-36c0-8 6-14 14-16 10 0 18-2 28-2 8 0 16 2 26 2 8 2 14 8 14 16l6 36c6 2 12 4 18 8l30-22c6-6 14-6 22 0 14 10 26 22 36 38 6 6 6 14 0 20l-22 30c4 6 6 12 8 18l36 6c8 0 14 6 16 14 0 10 2 18 2 26 0 10-2 18-2 28-2 8-8 14-16 14zM726 522l-34-4c-8 0-14-6-14-14-4-10-8-22-14-30-4-8-4-16 0-22l22-26c-4-4-8-8-12-12l-26 22c-6 4-14 4-22 0-8-6-20-10-30-14-8 0-14-6-14-14l-4-34c-6 0-12 0-18 0l-4 34c0 8-6 14-12 14-12 4-22 8-32 14-8 4-16 4-22 0l-26-22c-2 2-2 4-4 6l-2 2c-2 2-4 2-6 4l22 26c4 6 4 14 0 20-6 10-10 22-14 32 0 8-6 14-14 14l-34 4c0 2 0 4 0 6v6c0 2 0 4 0 6l34 4c8 0 14 6 14 14 4 10 8 22 14 30 4 8 4 16 0 22l-22 26c2 2 4 2 6 4l2 2c2 2 2 4 4 6l26-22c6-4 14-4 22 0 10 6 20 10 32 14 6 0 12 6 12 14l4 34c6 0 12 0 18 0l4-34c0-8 6-14 14-14 10-4 22-8 30-14 8-4 16-4 22 0l26 22c4-4 8-8 12-12l-22-26c-4-6-4-14 0-22 6-10 10-20 14-30 0-8 6-14 14-14l34-4c0-4 0-6 0-10 0-2 0-4 0-8z" />
<glyph unicode="&#x32;" glyph-name="uni32" d="M706 808c-44 0-88-12-128-34-4-2-6-6-8-10l-56-166c-2-4-2-8 0-12l34-106-26-74v80c0 4 0 8-4 12l-62 66 46 158c2 6 0 12-6 18-48 44-112 68-176 68-138 0-250-112-250-248 0-56 18-106 50-150 0-2 2-2 2-2l344-408c10-12 26-20 44-20v0c16 0 32 8 42 20l346 398c38 46 58 102 58 162 0 136-112 248-250 248zM870 422l-346-398c-4-6-8-8-14-8v0c-6 0-12 2-16 8l-346 408c-28 36-42 80-42 128 0 116 96 212 214 212 52 0 102-18 144-52l-46-156c-2-6 0-12 4-16l64-70v-178c0-10 6-18 14-18 10-2 18 2 20 10l64 182c2 4 2 8 0 12l-34 106 52 154c32 18 68 26 104 26 118 0 214-96 214-212 0-50-18-100-50-138z" />
<glyph unicode="&#x33;" glyph-name="uni33" d="M766 726c0 0 0 0 0 0-20-20-20-50 0-70 10-8 22-14 34-14s26 6 36 14c18 20 18 52 0 70-20 20-52 20-70 0zM810 682c-6-4-14-4-18 0-6 6-6 14 0 18 0 0 0 0 0 2 4 4 12 4 18-2 4-4 4-12 0-18zM904 794c-28 28-64 42-104 42 0 0 0 0 0 0-38 0-76-14-102-42-2-2-2-2-4-4l-128-204c-8-12-20-22-28-26l-26 28c-46 46-92 28-110 12-6-4-280-208-312-230-12-4-22-14-24-26-6-12-2-28 8-38l36-36c10-10 24-14 38-10-4-12 0-26 10-38l30-30c12-10 28-14 44-6v0-2c-8-14-4-32 8-42l14-16c12-10 26-14 40-10-4-12-2-28 10-38l14-14c14-14 36-16 50-4l6 6-8-16c-6-14-4-32 8-44l38-38c8-8 18-12 28-12 4 0 6 2 10 2 12 4 22 14 26 26l230 312c20 20 30 66-12 108l-24 26c2 6 12 18 22 26l208 130c2 2 2 2 4 2 56 58 56 150 0 206zM606 220l-280 280c20 14 40 28 64 46l262-264zM444 2c0-2-2-4-2-8 0 0-2 0-2-2 0 0-2 0-2 2l-38 38c-2 0-2 2 0 2l44 90c2 8 0 18-6 22-6 6-16 6-22 0l-70-58c-2 0-2 0-4 0l-14 14c0 2 0 2 0 4l36 60c4 6 2 16-4 22s-16 6-22 0l-56-36c0-2-2-2-2 0l-16 14c0 2 0 2 0 4l24 48c4 6 2 14-4 20-4 6-14 6-20 4l-48-24c-2 0-2 0-2 0l-30 30c-2 2-2 2-2 4l40 48c6 8 6 16 0 24-6 6-14 8-22 4l-62-32c0-2-2-2-2 0l-36 36c0 0 0 0 0 2 0 0 0 0 2 2 2 0 4 0 6 2 0 0 0 0 188 140l288-288zM878 616l-206-130c-14-12-44-38-38-68 2-4 2-6 6-10l28-28c34-34 12-60 12-62-2 0-2 0-2 0s0 0 0 0l-4-6-256 256c2 0 4 2 4 2v0c2 2 2 2 2 2 2 2 28 24 62-10l32-32c2-2 6-4 8-4 32-8 60 28 70 40l128 204c20 20 48 30 76 30 30 0 56-10 78-32 42-42 42-110 0-152z" />
<glyph unicode="&#x34;" glyph-name="uni34" d="M940 832c-6 6-16 8-24 2l-510-430c0 0 0 0 0 0s0 0 0-2l-94-94c-28-4-130-24-160-136-30-110-80-160-80-162-4-4-6-10-4-16s6-12 12-14c4 0 36-8 82-8s106 8 158 44c54 40 88 102 96 188l94 94c2 0 2 0 2 0s0 0 0 0l430 510c6 6 4 18-2 24zM298 46c-60-42-138-40-180-36 20 28 48 78 68 154 26 88 102 106 128 108l66-66c-8-74-36-128-82-160zM400 238l-54 54 72 72 54-54zM498 336l-54 54 334 280z" />
<glyph unicode="&#x35;" glyph-name="uni35" d="M274 242c-60 0-110-40-110-90s50-90 110-90c62 0 112 40 112 90s-50 90-112 90zM274 98c-42 0-74 24-74 54s32 54 74 54c42 0 76-24 76-54s-34-54-76-54zM154 68c-32 0-60-22-60-50 0-30 28-52 60-52 34 0 62 22 62 52 0 28-28 50-62 50zM154 2c-14 0-24 8-24 16 0 6 10 14 24 14 16 0 26-8 26-14 0-8-10-16-26-16zM952 498c-6 44-32 84-76 110 0 4 0 10 0 14-10 84-84 146-176 148-34 46-94 70-156 62-32-2-62-14-86-32-26 22-62 34-98 28-54-4-98-42-108-88-118-34-198-140-186-252 14-110 110-196 232-204 26-22 62-32 102-28 16 2 32 6 48 14 28-20 66-30 104-30 8 0 16 0 24 0 58 6 106 36 134 76 10 0 22-2 32-2s18 2 28 2c110 12 192 94 182 182zM766 352c-8-2-16-2-24-2-12 0-26 2-38 4l-14 2-6-12c-18-36-62-62-112-68-42-4-84 6-110 30l-10 8-12-6c-12-10-28-14-44-16-32-4-60 6-78 22l-6 6h-6c-108 4-192 78-204 172-10 98 62 190 170 216l12 2v12c6 36 38 66 80 72 30 2 60-8 78-30l12-14 14 12c22 20 50 32 80 34 52 6 102-16 128-54l6-8h14c76 0 136-50 144-116 0-6 0-12 0-20v-12l10-4c38-20 62-52 66-88 8-68-60-132-150-142z" />
<glyph unicode="&#x36;" glyph-name="uni36" d="M780 576c-10 0-20 0-32-2-18 76-86 132-168 132-10 0-26 0-40-2-46 40-94 60-150 60-120 0-218-88-236-210-52-32-88-86-88-138 0-90 74-162 164-162h70v-188c0-8 4-14 10-16 2-2 6-2 8-2 4 0 10 2 12 6l184 200h266c92 0 174 76 174 162 0 84-82 160-174 160zM780 290h-274c-4 0-10-2-14-6l-156-172v160c0 4-2 10-4 12-4 4-8 6-14 6h-88c-78 0-128 64-128 126 0 40 32 86 78 110 6 2 8 8 10 14 10 108 94 188 200 188 50 0 92-18 134-56 4-4 10-6 16-4 10 2 28 4 40 4 70 0 128-54 136-122 2-6 4-10 8-12 4-4 10-4 16-4 12 4 26 6 40 6 74 0 138-58 138-124 0-68-64-126-138-126z" />
<glyph unicode="&#x37;" glyph-name="uni37" d="M648 840h-282c-164 0-296-144-296-322 0-150 96-280 228-314v-204c0-6 6-14 12-16 2-2 4-2 6-2 6 0 10 2 12 4l238 210h82c164 0 296 144 296 322s-132 322-296 322zM648 232h-88c-6 0-10-2-12-4l-214-188v178c0 8-6 16-14 18-124 24-214 142-214 282 0 158 116 286 260 286h282c144 0 260-128 260-286s-116-286-260-286zM714 640h-402c-10 0-18-8-18-18s8-18 18-18h402c10 0 18 8 18 18s-8 18-18 18zM714 522h-402c-10 0-18-8-18-18s8-18 18-18h402c10 0 18 8 18 18s-8 18-18 18zM510 402h-198c-10 0-18-8-18-18s8-18 18-18h198c10 0 18 8 18 18s-8 18-18 18z" />
<glyph unicode="&#x38;" glyph-name="eight" d="M15.36 352q0 147.456 71.68 262.656t183.296 180.736q117.76 68.608 257.024 68.608 147.456 0 262.656-71.68t180.736-183.296q68.608-117.76 68.608-257.024 0-147.456-71.68-262.656t-183.296-180.736q-117.76-68.608-257.024-68.608-147.456 0-262.656 71.68t-180.736 183.296q-68.608 117.76-68.608 257.024zM147.456 352q0-40.96 12.288-59.392t41.984-23.552q40.96-1.024 87.040 40.96 96.256 84.992 69.632 296.96-2.048 16.384-2.048 17.408-4.096 8.192 0 9.728t13.312-1.536q97.28-25.6 184.32-101.376 73.728-63.488 171.008-197.632 41.984-58.368 90.112-78.848 57.344-19.456 77.824 13.312 20.48 31.744 20.48 83.968 0 117.76-62.464 212.992-50.176 75.776-133.632 124.416t-186.88 48.64q-69.632 0-128-22.528-80.896-28.672-143.36-91.648t-91.136-144.896q-2.048-15.36-9.216-28.672-12.288-52.224-11.264-98.304z" />
<glyph unicode="&#x39;" glyph-name="uni39" d="M726 450c-10 20-20 38-34 56v0c-8 10-16 18-26 28 8 42-4 82-26 116 4 12 6 24 6 38 0 70-38 114-96 114h-18v-92c-18 10-26 8-44-2v94h-18c-58 0-96-44-96-114 0-14 2-28 8-40-24-34-32-74-26-114-164-156-66-456 156-456 172 0 288 196 214 372zM512 114c-186 0-282 262-116 406-10 42-8 78 20 114l8 8-6 12c-6 10-8 22-8 34 0 16 4 64 42 76v-106c44 8 32 8 60 22 36-20 16-16 56-22v106c38-12 42-60 42-76 0-12-2-22-8-34l-4-10 8-8c28-36 30-74 22-116 12-12 22-18 34-34v-4l6-4c112-174-4-364-156-364zM238 350h-146c-10 0-18-8-18-18s8-18 18-18h146c24 0 24 36 0 36zM128 572l136-96c20-12 40 16 20 30l-128 90v42c0 10-8 18-18 18s-18-8-18-18v-50c0-6 2-12 8-16zM264 190l-136-96c-6-4-8-8-8-14v-52c0-10 8-18 18-18s18 8 18 18v42l128 90c8 6 10 16 6 26-6 8-18 10-26 4zM932 350h-146c-24 0-24-36 0-36h146c10 0 18 8 18 18s-8 18-18 18zM758 476l138 96c4 4 8 10 8 16v50c0 10-10 18-18 18-10 0-18-8-18-18v-42l-130-90c-20-14 0-42 20-30zM896 94l-138 96c-18 14-40-16-20-30l130-90v-42c0-10 8-18 18-18 8 0 18 8 18 18v52c0 6-4 10-8 14z" />
<glyph unicode="&#x3a;" glyph-name="colon" horiz-adv-x="885" d="M15.36-160l427.008 1024 427.008-1024h-377.856v138.24l174.080 87.040-13.312 56.32-160.768-80.896v68.608l100.352 53.248-14.336 58.368-86.016-46.080v89.088h-94.208v-160.768l-88.064 60.416-16.384-65.536 104.448-71.68v-186.368h-381.952z" />
<glyph unicode="&#x3b;" glyph-name="semicolon" horiz-adv-x="1180" d="M15.36 530.176q0 13.312 13.312 13.312h180.224v132.096q0 14.336 13.312 14.336h100.352v-526.336q0-14.336-12.288-14.336h-294.912v380.928zM195.584 234.24q13.312 0 13.312 14.336v210.944h-68.608q-13.312 0-13.312-14.336v-210.944h68.608zM357.376 530.176q0 13.312 13.312 13.312h100.352v-379.904q0-14.336-12.288-14.336h-101.376v380.928zM357.376 675.584q0 14.336 12.288 14.336h101.376v-70.656q0-14.336-12.288-14.336h-101.376v70.656zM509.952 530.176q0 13.312 13.312 13.312h294.912v-516.096q0-13.312-13.312-13.312h-294.912l1.024 70.656q0 14.336 12.288 14.336h180.224v50.176h-193.536v380.928zM691.2 234.24q12.288 0 12.288 14.336v210.944h-68.608q-12.288 0-12.288-14.336v-210.944h68.608zM870.4 99.072h180.224v50.176h-193.536v380.928q0 13.312 13.312 13.312h293.888v-516.096q0-13.312-12.288-13.312h-294.912v70.656q0 14.336 13.312 14.336zM968.704 234.24h68.608q13.312 0 13.312 14.336v210.944h-68.608q-13.312 0-13.312-14.336v-210.944z" />
<glyph unicode="&#x3c;" glyph-name="uni3C" d="M174 502c-10 0-18-8-18-18v-420c0-10 8-18 18-18h82c10 0 18 8 18 18v420c0 10-8 18-18 18zM238 82h-46v384h46zM376 502c-10 0-18-8-18-18v-420c0-10 8-18 18-18h82c10 0 18 8 18 18v420c0 10-8 18-18 18zM440 82h-46v384h46zM576 502c-10 0-18-8-18-18v-420c0-10 8-18 18-18h80c10 0 18 8 18 18v420c0 10-8 18-18 18zM638 82h-44v384h44zM780 502c-10 0-18-8-18-18v-420c0-10 8-18 18-18h80c10 0 18 8 18 18v420c0 10-8 18-18 18zM842 82h-46v384h46zM86 566h850c0 0 0 0 0 0 10 0 18 8 18 18 0 8-4 14-10 18l-424 246c-6 2-12 2-18 0l-426-248c-6-4-10-12-8-20s10-14 18-14zM512 812l358-210h-718zM936-10h-850c-10 0-18-8-18-18s8-18 18-18h850c10 0 18 8 18 18s-8 18-18 18zM510 760c-36 0-66-30-66-66 0-38 30-68 66-68 38 0 68 30 68 68 0 36-30 66-68 66zM510 662c-16 0-30 14-30 30 0 18 14 32 30 32 18 0 32-14 32-32 0-16-14-30-32-30z" />
<glyph unicode="&#x3d;" glyph-name="uni3D" d="M162 356v-312c0-10 8-18 18-18s18 8 18 18v312c0 10-8 18-18 18s-18-8-18-18zM244 356v-312c0-10 8-18 18-18s18 8 18 18v312c0 10-8 18-18 18s-18-8-18-18zM364 356v-312c0-10 8-18 18-18s18 8 18 18v312c0 10-8 18-18 18s-18-8-18-18zM446 356v-312c0-10 8-18 18-18s18 8 18 18v312c0 10-8 18-18 18s-18-8-18-18zM564 356v-312c0-10 8-18 18-18s18 8 18 18v312c0 10-8 18-18 18s-18-8-18-18zM644 356v-312c0-10 8-18 18-18s18 8 18 18v312c0 10-8 18-18 18s-18-8-18-18zM768 356v-312c0-10 8-18 18-18s18 8 18 18v312c0 10-8 18-18 18s-18-8-18-18zM848 356v-312c0-10 8-18 18-18s18 8 18 18v312c0 10-8 18-18 18s-18-8-18-18zM92 410h850c10 0 18 8 18 18s-8 18-18 18h-850c-10 0-18-8-18-18s8-18 18-18zM942-10h-850c-10 0-18-8-18-18s8-18 18-18h850c10 0 18 8 18 18s-8 18-18 18zM354 490c10 0 18 8 18 18 0 80 64 146 146 146 80 0 144-66 144-146 0-10 8-18 18-18s18 8 18 18c0 94-72 172-162 180v128h86c10 0 18 8 18 18s-8 18-18 18h-104c-10 0-18-8-18-18v-146c-92-8-164-86-164-180 0-10 8-18 18-18z" />
<glyph unicode="&#x3e;" glyph-name="uni3E" d="M912 510h-80c-4 0-6-2-8-4l-34 134c-10 50-44 100-102 100h-354c-58 0-94-50-102-98l-34-136c-2 2-6 4-10 4h-78c-22 0-40-18-40-40v-20c0-22 16-38 38-40l6-2c-4-14-8-32-8-48l-10-128v-206c0-32 26-58 56-58h62c30 0 56 26 56 58v66h482v-66c0-32 24-58 56-58h60c32 0 58 26 58 58v84c0 0 0 0 0 0v124l-12 124c0 18-2 36-6 52h4c22 2 40 18 40 40v20c0 22-18 40-40 40zM266 634c8 34 30 70 68 70h354c40 0 60-38 66-72l40-152c-2-36-44-66-80-66h-406c-36 0-78 30-80 66zM234 26c0-12-10-22-20-22h-60c-12 0-22 10-22 22v66h102v-66zM868 4h-60c-12 0-20 10-20 22v66h102v-66c0-12-10-22-22-22zM916 450c0-4-4-4-8-4l-30-6c-4 0-10-4-12-8-2-6-2-12 0-18 8-16 12-34 12-58l12-124v-104h-758v102l10 128c0 22 4 40 14 56 2 6 2 12 0 16-2 6-8 10-14 10l-30 6c-2 0-6 0-6 4v20c0 2 2 4 4 4h78c2 0 4 0 4 0 6-54 64-94 116-94h406c52 0 110 40 114 94 2 0 2 0 4 0h80c2 0 4-2 4-4v-20zM608 296h-196c-10 0-18-8-18-18s8-18 18-18h196c10 0 18 8 18 18s-8 18-18 18zM608 218h-196c-10 0-18-8-18-18s8-18 18-18h196c10 0 18 8 18 18s-8 18-18 18zM280 320c-42 0-78-36-78-78 0-44 36-78 78-78 44 0 78 34 78 78 0 42-34 78-78 78zM280 200c-22 0-42 18-42 42 0 22 20 42 42 42 24 0 42-20 42-42 0-24-18-42-42-42zM742 320c-44 0-78-36-78-78 0-44 34-78 78-78 42 0 76 34 76 78 0 42-34 78-76 78zM742 200c-24 0-42 18-42 42 0 22 18 42 42 42 22 0 40-20 40-42 0-24-18-42-40-42zM462 622h98c10 0 18 8 18 18s-8 18-18 18h-98c-10 0-18-8-18-18s8-18 18-18z" />
<glyph unicode="&#x3f;" glyph-name="uni3F" d="M856 386c-2 2-4 2-6 2-76 16-140 12-188-14 4 28 0 58-10 84h188c2 0 2 0 4 0 0 0 0 0 2 0 0 0 0 2 0 2 2 0 2 0 4 0 0 2 2 2 2 2 2 2 2 2 2 4 2 0 2 2 4 2 0 2 0 2 0 2 0 2 0 4 0 6 0 0 0 0 0 0s0 2 0 2c0 0 0 2 0 2-38 164-182 278-348 278-168 0-312-114-350-278 0 0 0-2 0-2s0-2 0-2c0 0 0 0 0 0 0-2 0-4 0-6 0 0 2 0 2-2 0 0 0-2 2-4 0 0 2 0 2-2 0 0 2 0 2-2 2 0 2 0 4 0 0 0 0-2 2-2 0 0 2 0 4 0 0 0 0 0 0 0h188c-10-28-14-58-8-86-50 26-114 32-192 16 0 0-2 0-2-2-2 0-2 0-4 0 0 0-2-2-2-2 0-2-2-2-2-4-2 0-2 0-2-2 0 0-2-2-2-4 0 0 0 0 0-2 0 0 0-2 0-4 14-160 134-294 294-322 0 0 2 0 2 0 10 0 16 6 18 14 0 0 0 0 0 0s0 0 0 2c2 4 18 104-14 194 18-8 38-12 58-12 18 0 38 4 56 12-30-90-14-190-12-196 0 0 0 0 0 0s0 0 0 0 0-2 0-4c0 0 2 0 2-2 2-4 8-8 14-8 2 0 2 0 4 0 0 0 0 0 0 0s0 0 0 0c158 30 278 162 292 322 2 8-2 14-10 18zM200 494c42 136 166 228 310 228 142 0 266-92 308-228h-188c-4 6-8 10-12 14-28 30-68 46-108 46-42 0-80-16-110-46-4-4-8-8-12-14zM190 356c80 12 142 0 184-40 66-64 64-184 60-230-130 30-226 138-244 270zM426 316c-46 46-46 120 0 166 22 24 52 36 84 36 30 0 60-12 82-36 48-46 48-120 0-166-22-22-52-36-82-36-32 0-62 14-84 36zM586 86c-4 46-10 166 58 232 40 40 102 52 184 38-16-132-114-238-242-270zM510 840c-244 0-442-198-442-440 0-244 198-442 442-442 242 0 440 198 440 442 0 242-198 440-440 440zM510-6c-224 0-406 182-406 406 0 222 182 404 406 404s406-182 406-404c0-224-182-406-406-406z" />
<glyph unicode="&#x40;" glyph-name="uni40" d="M862 830h-464c-10 0-18-8-18-18v-62l-202-48c-8-2-14-12-12-22l172-718c0-4 4-8 8-12 2-2 6-2 10-2 0 0 2 0 4 0l442 106h60c8 0 18 8 18 18v740c0 10-10 18-18 18zM368-12l-164 684 176 42v-642c0-10 8-18 18-18h248zM844 90h-428v704h428zM566 364c18 0 36 6 50 16-4-22-16-60-48-70-2 0-4-2-4-6v-8c0-2 2-4 2-6 2 0 2 0 4 0 0 0 2 0 2 0s26 12 56 12c0 0 2 0 2 0s0 0 0 0c30 0 56-12 56-12 2 0 2 0 4 0 0 0 2 0 2 0 2 2 4 4 4 6v8c0 4-2 6-4 6-32 10-44 48-50 70 16-10 32-16 50-16 36 0 74 24 74 70 0 48-46 80-78 106-12 8-22 14-30 20-10 8-16 12-24 18 0 2-2 2-4 2s-4 0-6-2c-8-8-16-12-36-28l-16-10c-28-20-78-56-78-106 0-46 38-70 72-70zM592 510l18 12c8 6 14 10 20 14 2-2 4-4 8-6h2c6-6 16-12 26-20 28-20 64-46 64-76 0-28-24-34-38-34-10 0-18 2-28 10-6 4-14 6-22 6-4 0-8 0-12-2-4 2-10 2-14 2-8 0-16-2-22-6-8-8-18-10-28-10-12 0-36 6-36 34 0 32 40 60 62 76z" />
<glyph unicode="&#x41;" glyph-name="uni41" horiz-adv-x="500" d="M488.727 72.727h-79.273l-52.727 156h-216.364l-56-156h-74.182l201.818 537.818h83.636zM329.091 293.455l-79.273 237.818-86.182-237.818h165.455z" />
<glyph unicode="&#x42;" glyph-name="B" horiz-adv-x="1051" d="M15.36 540.416q0 133.12 95.232 228.352t228.352 95.232h226.304q65.536-8.192 141.312-58.368 75.776-51.2 107.52-117.76 22.528-46.080 29.696-110.592 9.216-70.656 26.624-87.040 13.312-13.312 72.704-15.36t66.56-7.168l14.336-11.264 8.192-17.408 3.072-14.336-2.048-262.144q-1.024-133.12-95.232-228.352-93.184-94.208-227.328-94.208h-371.712q-134.144 0-228.352 94.208-95.232 95.232-95.232 228.352v377.856zM280.576 167.68q0-25.6 18.432-43.52t44.032-17.92h364.544q25.6 0 43.52 17.92t17.92 43.52-17.92 43.52-43.52 17.92h-364.544q-25.6 0-44.032-17.92t-18.432-43.52zM280.576 538.368q0-25.6 18.432-44.032t44.032-18.432h179.2q25.6 0 43.52 18.432t17.92 44.032-17.92 43.52-43.52 17.92h-179.2q-25.6 0-44.032-17.92t-18.432-43.52z" />
<glyph unicode="&#x43;" glyph-name="uni43" horiz-adv-x="500" d="M468 233.818q0-48-23.455-85.273t-61.273-56.545-82.545-19.273h-247.273v537.818h242.909q60 0 101.818-36t43.273-100q0-36.364-18.182-68.182t-51.636-44.182q42.545-14.909 69.455-48.545t26.909-79.818zM369.818 458.909q0 44.364-22.727 65.818t-79.818 22.909h-139.636v-165.455h141.455q50.545 0 74.909 22t25.818 54.727zM395.636 224.364q0 24-5.091 40.545t-18.364 30-38.182 20.364-62.364 7.273h-144v-188.727h168q25.091 0 44.727 8.364t31.091 22 17.455 28.909 6.727 31.273z" />
<glyph unicode="&#x44;" glyph-name="uni44" horiz-adv-x="541" d="M510.182 270.182q-4-34.909-16.182-66.545t-32.364-58.182-46.545-46-60.727-30.364-73.273-10.909q-54.545 0-98.364 17.818t-71.455 46.364-46.364 66.909-26.364 77.091-7.636 79.455q0 42.182 9.818 81.818t30 74.909 49.091 62 69.455 42.909 88.182 17.636q20.727 0 42-3.273t45.636-10.364 46.364-20.727 41.091-32.364 32.909-47.091 18.909-62.909h-70.909q-10.545 53.455-50 82t-95.455 28.545q-38.182 0-68.727-11.273t-51.091-30.545-34.182-46.727-20-58.182-7.091-66.364q0.727-33.091 6.909-64.364t19.273-60.364 31.818-50.727 46.545-34.727 61.636-13.091q70.182 0 112.727 38.909t53.091 108.727h71.273z" />
<glyph unicode="&#x45;" glyph-name="uni45" horiz-adv-x="541" d="M503.273 360.727q0-45.455-8.909-87.455t-26.909-78.182-43.273-63.091-60.364-42.727-75.818-16.545h-228.364v537.818h225.818q28 0 56.545-8t57.273-27.091 50.909-46.909 36.909-71.273 16.182-96.545zM428.364 354.545q0 30.909-4.909 58.364t-16.545 52.364-28.909 42.909-43.636 28.727-59.455 10.727h-141.455v-413.818h150.182q43.273 0 76.545 29.455t50.727 79.273 17.455 112z" />
<glyph unicode="&#x46;" glyph-name="uni46" horiz-adv-x="500" d="M460.364 72.727h-397.455v537.818h393.091v-65.455h-319.636v-163.636h294.545v-64.727h-294.545v-179.273h324v-64.727z" />
<glyph unicode="&#x47;" glyph-name="uni47" horiz-adv-x="457" d="M435.273 545.091h-298.909v-163.636h263.636v-64.727h-263.636v-244h-73.455v537.818h372.364v-65.455z" />
<glyph unicode="&#x48;" glyph-name="uni48" horiz-adv-x="581" d="M525.818 72.727h-46.545l-17.091 71.636q-25.455-35.636-72.727-58.727t-104-24.909q-53.091 0-95.273 14.182t-70.909 39.455-47.818 61.273-27.636 78.182-8.545 92q0 40.727 9.636 79.818t30.364 74.545 50 62.182 71.636 42.909 92.545 16.545q41.091 0 79.091-11.273t69.273-32.727 52.545-55.273 26.727-75.636h-69.818q-9.818 39.636-34.545 65.455t-56 36.182-70.545 10.364q-77.091 0-126.909-58.727t-49.818-158.364q0-107.273 48.727-165.273t128-58q62.909 0 112.727 38.545 33.091 26.909 45.636 57.636t14 82h-167.273v62.182h234.545v-286.182z" />
<glyph unicode="&#x49;" glyph-name="uni49" horiz-adv-x="541" d="M484.364 72.727h-73.091v249.818h-281.091v-249.818h-73.455v537.818h73.455v-223.273h281.091v223.273h73.091v-537.818z" />
<glyph unicode="&#x4a;" glyph-name="uni4A" horiz-adv-x="207" d="M140.364 72.727h-73.091v537.818h73.091v-537.818z" />
<glyph unicode="&#x4b;" glyph-name="K" horiz-adv-x="1143" d="M15.36-160v1024h263.168v-379.904h234.496l105.472 152.576 157.696 227.328h292.864l-335.872-488.448q0-13.312 98.304-146.432l197.632-262.144 98.304-126.976h-351.232l-292.864 409.6h-204.8v-409.6h-263.168z" />
<glyph unicode="&#x4c;" glyph-name="uni4C" horiz-adv-x="374" d="M320.727 217.455q0-42.545-12.182-73.818t-34-49.455-48.909-26.727-60.182-9.273q-33.818 0-60.727 8.364t-44 21.818-28.364 31.455-15.818 36-4.545 36.545v52.727h68v-37.818q0-44.727 19.818-66t61.273-21.273q44.364 0 64.545 22.545t20.909 70.545v397.455h74.182v-393.091z" />
<glyph unicode="&#x4d;" glyph-name="uni4D" horiz-adv-x="500" d="M495.636 72.727h-93.818l-189.091 269.091-84.364-80.364v-188.727h-73.091v537.818h73.091v-261.818l261.091 261.818h100l-224-217.091z" />
<glyph unicode="&#x4e;" glyph-name="uni4E" horiz-adv-x="417" d="M401.818 72.727h-346.545v537.818h73.091v-473.091h273.455v-64.727z" />
<glyph unicode="&#x4f;" glyph-name="uni4F" horiz-adv-x="622" d="M569.818 72.727h-71.636v451.636l-149.818-451.636h-72.364l-153.455 450.909v-450.909h-69.091v537.818h104.364l154.909-456 153.455 456h103.636v-537.818z" />
<glyph unicode="&#x50;" glyph-name="uni50" horiz-adv-x="541" d="M484.364 72.727h-82.545l-274.182 433.455v-433.455h-70.909v537.818h86.182l270.909-435.273v435.273h70.545v-537.818z" />
<glyph unicode="&#x51;" glyph-name="uni51" horiz-adv-x="581" d="M552.364 341.818q0-20.364-2-40.727t-8.545-48.909-17.455-53.273-30.909-50.364-46.364-44-66.364-30.364-88.364-12.727q-52.727 0-96.545 15.636t-73.818 42.364-50.909 62.727-30.545 76.182-9.636 83.455q0 45.091 9.818 85.818t30.909 76 51.455 61.273 73.636 41.091 95.636 15.818q41.091 0 76.727-9.273t61.636-25.273 47.091-38.182 34.727-47.091 22.909-52.727 13.091-54.364 3.818-53.091zM479.273 341.818q0 96-49.636 154.909t-137.273 60.364q-83.636 0-135.455-58.364t-51.818-156.909q0-97.091 50.182-155.636t137.091-60q87.636 0 137.273 59.091t49.636 156.545z" />
<glyph unicode="&#x52;" glyph-name="uni52" horiz-adv-x="500" d="M464.727 458.909q0-24-5.091-45.818t-17.091-42.545-30-36-45.636-24.909-61.818-10.364h-168.727v-226.545h-73.455v537.818h242.182q68.364 0 113.091-39.636t46.545-112zM389.455 458.909q0 88.727-105.818 88.727h-147.273v-186.909h144.727q107.273 0 108.364 98.182z" />
<glyph unicode="&#x53;" glyph-name="uni53" horiz-adv-x="581" d="M552.364 341.818q0-130.182-78.182-206.909l73.091-57.091-35.273-44-82.909 64.727q-56.364-37.091-137.818-37.091-52.727 0-96.545 15.636t-74 42.364-51.091 62.727-30.545 76.182-9.636 83.455q0 45.091 9.818 85.818t30.909 76 51.455 61.273 73.818 41.091 95.818 15.818q41.091 0 76.545-9.273t61.636-25.273 47.273-38.182 35.091-47.091 23.273-52.727 13.273-54.364 4-53.091zM477.455 341.818q0 96-49.273 154.909t-136.909 60.364q-84 0-135.455-58.182t-51.455-157.091q0-97.455 49.818-155.818t137.091-59.818q43.273 0 78.545 17.091l-56 42.545 37.091 45.455 68.727-52.364q57.818 60 57.818 162.909z" />
<glyph unicode="&#x54;" glyph-name="uni54" horiz-adv-x="541" d="M503.273 72.727h-81.818q-9.455 20.727-13.636 54.545t-5.455 67.818-2.364 41.273q-9.455 64.727-88 65.818h-182.545v-229.455h-73.455v537.818h257.818q32.364 0 61.455-8.727t53.091-26 38.545-46.545 15.636-67.091q0-83.636-78.182-124.727 28.727-9.091 45.818-31.636t20.364-55.636q2.182-20.364 4.545-57.091t5.273-60.182 9.091-38.727q6.545-15.273 13.818-21.455zM408.727 455.273q0 40.727-21.273 65.818t-67.818 26.545h-190.182v-182.545h184.364q40.727 0 67.818 25.091t27.091 65.091z" />
<glyph unicode="&#x55;" glyph-name="uni55" horiz-adv-x="500" d="M462.909 223.636q0-52.727-27.818-90t-74.364-54.727-108-17.455q-103.273 0-159.273 46.182t-56.364 142.545h67.273q0-28.364 8.727-50.545t22.727-35.818 34-22.727 39.818-12.909 43.091-4.545q21.455 0 40.727 2.727t37.818 9.273 32 16.545 21.636 25.818 8.182 36.182q0 14.182-3.091 25.273t-8.909 19.636-16.182 15.455-23.273 12.364-32 10.727-40.182 10.182-50.182 11.455q-13.091 2.909-20 4.364-24.364 5.455-43.455 11.818t-38.727 17.273-32.727 24.545-21.636 34.182-9.273 45.636q0 33.455 10.909 62.364t32.727 52.182 58.545 36.727 84 13.455q40.364 0 73.273-7.636t53.818-18.545 36.909-28.182 23.818-30.727 13.091-32.545 6.182-27.455 2-21.091q0.364-3.273 0.364-4.364h-67.273q0 22.909-7.818 41.455t-20.727 30.727-30.909 20.545-36.545 12.182-39.273 4.545q-18.545 0-34.909-2.364t-32.909-8.909-28.182-16.909-19.091-27.455-7.455-39.273q0-51.273 64.727-65.455l153.455-35.273q120.727-26.909 120.727-141.455z" />
<glyph unicode="&#x56;" glyph-name="uni56" horiz-adv-x="457" d="M447.273 545.091h-182.545v-472.364h-73.455v472.364h-181.091v65.455h437.091v-65.455z" />
<glyph unicode="&#x57;" glyph-name="uni57" horiz-adv-x="541" d="M482.545 249.455q0-38.182-12.909-71.091t-38.545-58.909-68-41.273-97.636-15.636q-102.545 0-154 47.455t-52.909 135.818v364.727h73.455v-350.909q0-62.182 34.545-97.818t98.909-35.636q65.455 0 103.818 34.364t40.182 97.636v352.364h73.091v-361.091z" />
<glyph unicode="&#x58;" glyph-name="uni58" horiz-adv-x="500" d="M483.636 610.545l-195.636-537.818h-77.818l-195.636 537.818h84.727l152.364-459.273 158.545 459.273h73.455z" />
<glyph unicode="&#x59;" glyph-name="uni59" horiz-adv-x="706" d="M694.909 610.545l-142.545-537.818h-75.636l-122.545 445.455-125.818-445.455h-76.727l-139.636 537.818h78.545l98.909-438.545 123.273 438.545h78.545l123.273-438.545 99.273 438.545h81.091z" />
<glyph unicode="&#x5a;" glyph-name="uni5A" horiz-adv-x="500" d="M484.364 72.727h-90.545l-144 220.727-149.091-220.727h-86.909l192.364 276-181.091 261.818h91.273l136.364-205.818 136.727 205.818h87.273l-180.364-262.909z" />
<glyph unicode="&#x5b;" glyph-name="uni5B" horiz-adv-x="500" d="M488 610.545l-202.545-323.273v-214.545h-72.727v214.545l-201.455 323.273h88l153.455-258.545 154.182 258.545h81.091z" />
<glyph unicode="&#x5c;" glyph-name="uni5C" horiz-adv-x="457" d="M439.636 72.727h-422.545v59.636l329.455 413.455h-305.091v64.727h398.182v-62.909l-330.909-409.455h330.909v-65.455z" />
<glyph unicode="&#x5d;" glyph-name="uni5D" d="M822 712c-84 84-194 130-312 130s-228-46-312-130c-82-82-128-194-128-310 0-118 46-230 128-312 84-84 194-130 312-130s228 46 312 130c82 82 128 194 128 312 0 116-46 228-128 310zM912 364c-114-10-224 28-310 104l206 206c68-76 106-172 106-274 0-12 0-24-2-36zM782 698l-204-204c-78 84-116 196-104 310 12 0 24 2 36 2 102 0 198-38 272-108zM224 686c58 60 132 98 212 112-8-122 34-240 116-330l-110-110c-90 84-208 124-330 116 14 80 54 154 112 212zM108 438c114 10 224-28 308-104l-204-206c-68 76-106 172-106 272 0 14 0 26 2 38zM238 104l204 204c78-84 114-196 104-310-12 0-24-2-36-2-102 0-198 38-272 108zM796 116c-60-60-134-98-214-112 10 122-32 240-114 330l110 110c82-76 186-118 298-118 10 0 20 2 32 2-16-80-54-154-112-212z" />
<glyph unicode="&#x5e;" glyph-name="uni5E" d="M884 786c-38 38-90 60-144 60-56 0-108-22-146-60l-460-460c-80-80-80-212 0-292 38-38 90-60 146-60 54 0 106 22 144 60l460 460c40 40 60 92 60 146 0 56-20 106-60 146zM510 650l238-240-238-240-240 240zM398 60c-32-32-74-50-118-50-46 0-88 18-120 50-66 66-66 174 0 240l84 84 240-238zM860 520l-86-84-240 240 86 84c32 32 74 50 120 50 44 0 88-18 120-50s48-74 48-120c0-46-16-88-48-120zM420 372c0-14-12-24-24-24-14 0-24 10-24 24s10 24 24 24c12 0 24-10 24-24zM496 296c0-14-12-24-24-24-14 0-24 10-24 24s10 24 24 24c12 0 24-10 24-24zM496 448c0-14-12-24-24-24-14 0-24 10-24 24s10 24 24 24c12 0 24-10 24-24zM496 372c0-12-12-24-24-24-14 0-24 12-24 24 0 14 10 24 24 24 12 0 24-10 24-24zM646 372c0-12-10-24-24-24-12 0-24 12-24 24 0 14 12 24 24 24 14 0 24-10 24-24zM570 448c0-14-10-24-24-24-12 0-22 10-22 24s10 24 22 24c14 0 24-10 24-24zM420 448c0-14-10-24-24-24s-24 10-24 24c0 14 10 24 24 24s24-10 24-24zM570 296c0-12-10-24-22-24-14 0-24 12-24 24 0 14 10 24 24 24 12 0 22-10 22-24zM496 524c0-14-12-24-24-24-14 0-24 10-24 24 0 12 10 24 24 24 12 0 24-12 24-24zM572 372c0-14-12-24-24-24-14 0-24 10-24 24s10 24 24 24c12 0 24-10 24-24zM572 524c0-14-12-24-24-24-14 0-24 10-24 24s10 24 24 24c12 0 24-10 24-24zM648 448c0-14-12-24-24-24-14 0-24 10-24 24s10 24 24 24c12 0 24-10 24-24z" />
<glyph unicode="&#x5f;" glyph-name="uni5F" d="M340 546c6 0 12 2 14 8l124 154c8-4 18-8 28-8 12 0 22 4 30 8l122-154c4-6 10-8 16-8 2 0 6 2 10 4 8 6 10 18 4 26l-126 158c4 8 8 18 8 28 0 36-28 64-64 64-34 0-62-28-62-64 0-10 2-20 8-28l-126-158c-6-8-4-20 4-26 2-2 6-4 10-4zM506 790c16 0 28-12 28-28 0-14-12-26-28-26-14 0-26 12-26 26 0 16 12 28 26 28zM732 270h-432c-10 0-18-8-18-18s8-18 18-18h432c10 0 18 8 18 18s-8 18-18 18zM760 374h-488c-10 0-18-8-18-18s8-18 18-18h488c10 0 18 8 18 18s-8 18-18 18zM706 168h-380c-10 0-18-8-18-18s8-18 18-18h380c10 0 18 8 18 18s-8 18-18 18zM866 512h-714c-50 0-90-40-90-90v-24c0-34 22-66 52-80l70-240c0-4 2-6 2-8 32-64 74-70 108-70h430c36 0 76 6 108 70 2 2 2 4 4 8l68 240c32 14 52 46 52 80v24c0 50-40 90-90 90zM920 398c0-22-14-42-36-50-6-2-10-6-12-12l-72-250c-24-46-46-50-76-50h-430c-30 0-52 4-76 52l-72 248c0 6-6 10-12 12-20 8-36 28-36 50v24c0 30 24 54 54 54h714c30 0 54-24 54-54v-24z" />
<glyph unicode="&#x60;" glyph-name="uni60" d="M932 514h-840c-10 0-18-8-18-18v-148c0-10 8-18 18-18h54l40-338c2-8 10-16 18-16h614c10 0 18 8 18 16l40 338h56c10 0 18 8 18 18v148c0 10-8 18-18 18zM110 478h804v-112h-4c0 0-2 2-4 2h-792c-2 0-4-2-4-2v0zM802 12h-582l-36 318h656zM318 606l200 200 200-200c4-4 8-4 12-4 6 0 10 0 14 4 6 8 6 20 0 26l-212 212c-4 4-8 6-14 6-4 0-10-2-12-6l-212-212c-8-6-8-18 0-26 6-6 18-6 24 0z" />
<glyph unicode="&#x61;" glyph-name="uni61" horiz-adv-x="417" d="M397.455 73.455v-0.727q-20.727-7.636-43.273-7.636-61.091 0-62.909 58.545-56-60.364-141.455-62.909-54.909 0-89.455 32.364t-34.545 77.818q0 21.818 5.636 39.636t14.364 30 23.273 22 27.818 15.455 33.091 10.727 34 7.455 35.636 6 33.091 5.818q29.818 5.091 42.545 18.364t12.727 28.909q0 30.182-23.091 48.364t-67.455 18.182q-40 0-64.182-19.273t-25.636-58.182h-61.091q0 53.455 40.545 91.091t119.091 39.091q38.545 0 71.091-11.818t54.727-38.727 22.182-65.091v-209.455q0-21.818 8.182-29.818t35.091 1.455v-47.636zM286.182 202.909v70.545q-10.545-6.909-30.545-12.364t-40.545-8.545-42.727-9.091-39.273-13.636-28.182-22.545-11.091-35.273q0-28.364 18.909-43.091t50.909-14.727q18.545 0 39.636 6.182t39.818 17.091 30.909 28.182 12.182 37.273z" />
<glyph unicode="&#x62;" glyph-name="uni62" horiz-adv-x="417" d="M395.636 279.636q1.091-30.909-3.818-60.545t-17.455-58.727-32-50.909-50.364-35.273-69.455-13.455q-37.818 0-68.182 15.455t-47.455 44.909l-5.091-48.364h-59.636v537.818h67.273v-195.636q21.455 28.364 50.364 43.273t69.636 16.364q71.636 0 117.636-54.364t48.545-140.545zM326.545 268.364q0 72-28.727 109.636t-80.727 37.636q-29.818 0-52.182-14t-34.545-36.545-17.818-46.727-5.636-49.273q0-146.909 113.818-150.545 50.909 0 78.364 40.909t27.455 108.909z" />
<glyph unicode="&#x63;" glyph-name="uni63" horiz-adv-x="374" d="M360.364 210.545q-4.364-40.364-20.727-70.545t-40.364-46.909-50.182-24.545-54.182-7.818q-73.818 0-123.636 57.636t-49.818 150q0 50.909 14.364 91.273t38.909 65.091 55.818 37.636 66.909 12.909q22.545 0 43.455-4.182t41.636-14.545 36.545-26 27.091-40.727 14.182-56.727h-62.909q-3.636 38.545-30.364 60.545t-67.091 22q-22.909 0-41.636-7.636t-34.182-24-24.182-45.818-8.727-69.818q0-61.818 30.909-104.545t77.818-42.727q39.636 0 64.182 22.545t32.182 66.909h64z" />
<glyph unicode="&#x64;" glyph-name="d" horiz-adv-x="1079" d="M15.36 312.064l219.136 166.912-219.136 165.888 318.464 207.872 207.872-178.176 212.992 178.176 309.248-197.632-202.752-168.96 202.752-174.080-314.368-189.44-207.872 159.744-207.872-159.744zM233.472 55.040v58.368l96.256-56.32 207.872 158.72 1.024-1.024v-363.52zM238.592 481.024l301.056-189.44 303.104 200.704-301.056 173.056zM538.624-148.736l1.024 363.52 2.048 1.024 206.848-158.72 102.4 61.44v-64.512z" />
<glyph unicode="&#x65;" glyph-name="e" horiz-adv-x="1459" d="M518.144 133.888q-72.704-34.816-210.944-34.816-188.416 0-243.712 52.224-27.648 25.6-37.888 54.784t-10.24 79.36q0 79.872 38.912 115.712t121.856 51.2q55.296 9.216 131.072 9.216 92.16 0 151.552-13.312 38.912-7.168 59.392-18.432v-164.864h-300.032q0-75.776 37.888-93.184 20.48-9.216 51.2-9.216 87.040 0 87.040 62.464h123.904v-91.136zM400.384 320.256q0 61.44-37.888 73.728-20.48 7.168-55.296 7.168-64.512 0-78.848-30.72-10.24-22.528-10.24-50.176h182.272zM518.144 225.024h79.872q-2.048-52.224-75.776-89.088-2.048-2.048-4.096-2.048v91.136zM827.392 198.4q-3.072-71.68-26.624-112.64t-82.944-40.96q-65.536 0-93.184 51.2h-1.024v-43.008h-105.472v80.896q2.048 0 4.096 2.048 73.728 36.864 75.776 89.088h-79.872v39.936h82.944q1.024 8.192 1.024 23.552 0 58.368-18.944 89.6t-65.024 51.712v187.392h109.568v-207.872h2.048q32.768 45.056 90.112 45.056 44.032 0 70.656-26.624-40.96-28.672-40.96-104.448 0-106.496 77.824-124.928zM518.144 429.824q46.080-20.48 65.024-51.712t18.944-89.6q0-15.36-1.024-23.552h-82.944v164.864zM636.928 143.104q9.216-30.72 35.84-30.72 28.672 0 37.888 30.72t9.216 110.592v5.12q0 61.44-6.144 91.136-7.168 36.864-40.96 36.864t-39.936-38.912q-5.12-29.696-5.12-94.208 0-79.872 9.216-110.592zM790.528 427.776q17.408-19.456 26.624-54.272t10.752-56.32-0.512-65.536v-53.248q-77.824 18.432-77.824 124.928 0 75.776 40.96 104.448zM1065.984 203.52q0 6.144-2.048 36.864t-2.048 37.888v104.448l-109.568 223.232q-46.080 3.072-50.176 3.072-67.584 0-103.424-26.624-40.96-25.6-40.96-96.256h109.568q0 32.768 7.68 47.104t33.28 14.336q26.624 0 35.84-13.312t9.216-45.056v-31.744h-24.576q-99.328 0-138.24-29.696 17.408-19.456 26.624-54.272 4.096-15.36 6.144-25.6t3.072-22.528 1.024-17.408v-109.568q5.12-1.024 26.624-1.024 68.608 0 102.4 59.392h2.048l5.12-53.248h102.4zM857.088 328.448q-11.264 9.216 1.024 20.48 12.288 10.24 5.12 15.36-5.12 3.072 0.512 7.68t11.776 7.68 4.096 5.12q-5.12 2.048 18.432 7.168l21.504 3.072q2.048 0 17.408 0.512t16.384 0.512q0-6.144 0.512-23.040t0.512-27.136-1.536-23.040-4.608-19.968q-15.36-37.888-49.152-37.888-41.984 0-41.984 63.488zM925.696 659.2h157.696l102.4-237.568 111.616 237.568h146.432l-193.536-367.616v-194.56h-144.384v194.56l-44.032 91.136v93.184q0 62.464-24.576 92.16t-84.992 37.888zM952.32 605.952q60.416-8.192 84.992-37.888t24.576-92.16v-93.184z" />
<glyph unicode="&#x66;" glyph-name="uni66" horiz-adv-x="417" d="M23.273 279.636q2.545 86.182 48.545 140.545t117.636 54.364q41.091-1.455 69.636-16.364t50.364-43.273v195.636h67.273v-537.818h-59.636v55.273q-17.455-29.818-50.727-48.545t-70-18.727q-38.545 0-69.455 13.455t-50.364 35.273-32 50.909-17.455 58.727-3.818 60.545zM92.364 268.364q0-68 27.455-108.909t78.364-40.909q113.818 3.636 113.818 150.545 0 25.091-5.636 49.273t-17.636 46.727-34.364 36.545-52.545 14q-52 0-80.727-37.636t-28.727-109.636z" />
<glyph unicode="&#x67;" glyph-name="g" horiz-adv-x="992" d="M232.448 154.368q83.968 0 151.040-44.032t67.072-113.664q0-65.536-63.488-110.592-64.512-46.080-154.624-46.080-91.136 0-153.6 46.080-63.488 46.080-63.488 110.592 0 86.016 102.4 133.12-26.624 40.96-26.624 76.8 0 39.936 28.672 75.776-38.912 23.552-64.512 63.488t-25.6 91.136q0 74.752 54.784 128.512t130.56 53.76q56.32 0 103.424-31.744h7.168q61.44 0 111.616 32.768v-117.76q-18.432-10.24-45.056-14.336 7.168-21.504 7.168-51.2 0-71.68-51.2-123.904t-121.856-56.32q-24.576-29.696-24.576-54.272 0-26.624 24.576-49.152 1.024 0 3.072 0.512t3.072 0.512zM212.992 520.96q-29.696 0-51.712-25.088t-22.016-56.832 22.016-56.832 51.712-25.088q30.72 0 52.224 24.576t21.504 57.344-21.504 57.344-52.224 24.576zM232.448 62.208q-34.816 0-62.464-17.92t-27.648-47.616q0-28.672 27.648-47.104t62.464-18.432 62.976 18.432 28.16 47.104q0 29.696-27.648 47.616t-63.488 17.92zM481.28 781.056q0 34.816 24.064 58.88t58.88 24.064 59.392-24.064 24.576-58.88-24.576-59.392-59.392-24.576-58.88 24.576-24.064 59.392zM500.736 609.024h137.216v-490.496h-137.216v490.496zM686.080 504.576h56.32v-291.84q9.216-74.752 93.184-101.376 15.36-5.12 31.744-7.168h20.48q22.528 0 46.592 7.168t33.28 17.408l7.168 9.216 2.048 101.376q-40.96-13.312-66.56-13.312-31.744 0-36.864 17.408l-4.096 13.312q0 3.072-1.024 4.096v243.712h93.184v104.448h-93.184v95.232h-125.952v-95.232h-56.32v-104.448z" />
<glyph unicode="&#x68;" glyph-name="uni68" horiz-adv-x="417" d="M390.545 245.818h-292.364q0-54.545 33.273-89.636t82.364-35.091q24.727 0 45.455 8t33.091 19.818 19.091 24.182 6.727 22.182h67.273q-10.909-62.545-58.545-98.182t-116.727-35.636q-41.455 0-76 15.455t-57.091 42.182-35.273 62.182-13.455 75.818q0 98.182 50.727 158.545t132.909 60.364q58.182 0 99.455-29.636t61.091-81.273 18-119.273zM321.455 299.273q0 52.364-31.636 85.273t-77.091 32.909q-46.545 0-79.636-34.727t-34.909-83.455h223.273z" />
<glyph unicode="&#x69;" glyph-name="uni69" horiz-adv-x="207" d="M195.636 615.636v-54.182q-11.273 1.818-27.636 1.818-19.636 0-27.818-9.091t-8.182-30.545v-59.636h63.636v-59.273h-63.636v-332h-67.273v332h-54.545v59.273h54.545v72.364q0 35.636 26.727 59.636t69.636 24q20 0 34.545-4.364z" />
<glyph unicode="&#x6a;" glyph-name="uni6A" horiz-adv-x="447" d="M394.909 89.818q0-95.273-46.545-142t-130.182-46.727q-12 0-24 1.091t-27.273 4.545-28.909 8.909-27.091 15.091-23.091 22.182-15.818 30.909-6.545 40.545h65.455q0-29.091 24.727-45.455t58.182-16.364q54.545 0 84.909 30.182t30.364 92v23.273q-23.636-25.455-52.909-36t-66.727-10.545q-30.545 0-60.545 13.273t-54.909 37.455-40.727 62.364-16.909 83.636q0 100.727 50.727 158.545t131.818 57.818q35.636 0 65.455-15.273t44.727-40v47.273h65.818v-376.727zM329.091 267.636q0 65.455-30 102.909t-82.727 37.455q-20.364 0-39.636-8.364t-35.273-24.364-25.636-42.364-9.636-59.455q0-38.545 9.636-68.909t26-48.182 36-27.091 41.091-9.273q48 0 78.545 39.091t31.636 108.545z" />
<glyph unicode="&#x6b;" glyph-name="k" d="M15.36 283.392v137.216l3.072 60.416q3.072 61.44 6.144 63.488 5.12 4.096 14.336 53.248 9.216 52.224 24.576 57.344 16.384 5.12 36.864 47.104 21.504 43.008 51.2 49.152 149.504 112.64 364.544 112.64h16.384v-795.648h126.976v212.992q3.072-4.096 24.576-39.936l40.96-65.536 26.624-40.96q28.672-38.912 61.952-53.248t96.768-14.336h36.864v120.832q-47.104 0-64.512 7.168-19.456 8.192-43.008 41.984-16.384 20.48-64.512 102.4l175.104 243.712h-151.552l-139.264-193.536v463.872q138.24-23.552 243.712-102.4 49.152-36.864 88.064-96.256 16.384-25.6 24.576-57.344 16.384-57.344 18.432-95.232 1.024-8.192 2.048-21.504 3.072-45.056 3.072-60.416v-137.216l-3.072-60.416q-3.072-61.44-6.144-63.488-5.12-4.096-14.336-53.248-9.216-52.224-24.576-57.344-16.384-5.12-36.864-47.104-21.504-43.008-51.2-49.152-149.504-112.64-375.808-112.64t-375.808 112.64q-49.152 36.864-88.064 96.256-16.384 25.6-24.576 57.344-16.384 57.344-18.432 95.232-1.024 8.192-2.048 21.504-3.072 45.056-3.072 60.416zM98.304 130.816q67.584-68.608 196.608-68.608 81.92 0 141.312 41.984 58.368 40.96 58.368 120.832 0 47.104-16.896 83.456t-47.616 49.664q-56.32 25.6-119.808 28.672-64.512 4.096-64.512 43.008 0 48.128 71.68 47.104 57.344 0 89.088-29.696l79.872 79.872q-61.44 61.44-174.080 61.44-79.872 0-134.144-41.984-55.296-43.008-55.296-120.832 0-49.152 19.968-83.456t53.76-47.616q38.912-14.336 124.928-26.624 26.624-4.096 37.376-13.312t10.752-31.744q0-47.104-73.728-47.104-78.848 0-115.712 36.864z" />
<glyph unicode="&#x6c;" glyph-name="uni6C" horiz-adv-x="417" d="M368 72.727h-67.273v256q0 42.545-18.182 64.727t-58.545 22.182q-22.182 0-41.273-7.636t-34.909-22.727-24.909-40.727-9.091-59.091v-212.727h-67.273v537.818h67.273v-198.909q20 30.909 53.455 46.545t68 17.091q20 0 37.818-3.818t35.636-13.818 30.545-25.636 20.727-40.909 8-58v-260.364z" />
<glyph unicode="&#x6d;" glyph-name="uni6D" horiz-adv-x="167" d="M115.636 534.909h-67.273v73.818h67.273v-73.818zM115.636 72.727h-67.273v391.273h67.273v-391.273z" />
<glyph unicode="&#x6e;" glyph-name="uni6E" horiz-adv-x="197" d="M147.273 5.455q0-38.545-25.455-63.636t-72.727-25.091q-21.455 0-33.455 2.545v57.091q14.909-3.636 30.182-3.636 18.545 0 26.364 10.545t7.818 36.727v444h67.273v-458.545zM147.273 534.909h-67.273v75.636h67.273v-75.636z" />
<glyph unicode="&#x6f;" glyph-name="uni6F" horiz-adv-x="374" d="M374.182 72.727h-83.636l-129.455 191.273-47.273-46.545v-144.727h-67.273v537.818h67.273v-312.727l167.273 166.182h84.364l-156-149.818z" />
<glyph unicode="&#x70;" glyph-name="uni70" horiz-adv-x="167" d="M116.364 72.727h-68v537.818h68v-537.818z" />
<glyph unicode="&#x71;" glyph-name="uni71" horiz-adv-x="622" d="M576.727 72.727h-67.273v252.727q0 90.182-72.364 90.182-39.273 0-64.364-28.364t-26.909-76.727v-237.818h-67.273v269.818q0 30.545-15.273 51.818t-47.636 21.273q-19.273 0-36.182-6.727t-31.636-21.091-23.636-40.727-9.636-61.636v-212.727h-67.273v391.273h62.182v-55.273q20.727 32.364 52.364 49.091t67.636 16.727q41.091 0 65.273-16.727t39.818-46.182q16.727 26.182 47.636 44.545t72 18.364q15.273 0 30.545-3.091t32.364-12.182 29.818-23.091 21.273-38.182 8.545-55.455v-269.818z" />
<glyph unicode="&#x72;" glyph-name="uni72" horiz-adv-x="417" d="M368 72.727h-67.273v244.727q0 22.182-3.636 39.091t-12 30.727-23.818 21.091-37.273 7.273q-47.273 0-78.727-32.182t-31.455-87.455v-223.273h-67.273v391.273h63.636v-56.727q5.455 8.727 15.818 19.091t26.182 21.818 37.818 18.909 45.273 7.455q60.364 0 96.545-34.909t36.182-106.545v-260.364z" />
<glyph unicode="&#x73;" glyph-name="uni73" horiz-adv-x="417" d="M393.091 268.364q0-40.727-12.545-77.455t-35.455-65.273-58-45.818-77.636-18.364q-34.182 0-63.636 11.091t-51.091 30.545-37.091 45.455-23.273 56.545-7.818 63.273q0 56.364 21.091 102.909t63.273 75.273 98.545 28.727 98.727-28.727 63.636-75.273 21.273-102.909zM324 268.364q0.364 24.727-6 49.455t-19.455 47.091-36.364 36.727-52.727 15.091q-29.091 0-52-14.182t-35.818-36.909-19.455-47.636-6.545-49.636q0-29.455 6.545-55.455t19.636-47.455 35.636-33.818 52-12.364q29.818 0 52.182 12.364t35.273 34 19.455 47.091 7.636 55.636z" />
<glyph unicode="&#x74;" glyph-name="uni74" horiz-adv-x="417" d="M396.364 257.091q-2.545-86.182-48.727-140.364t-118.182-54.182q-40.727 1.091-69.091 16t-50.182 43.273v-204.364h-68v546.545h60.364v-55.273q17.455 29.818 50.727 48.545t70 18.727q38.545 0 69.455-13.455t50.364-35.273 32.182-50.909 17.455-58.727 3.636-60.545zM327.636 268.364q0 68-27.636 109.091t-78.545 41.091q-58.182-2.182-86-41.455t-27.818-109.455q0-25.091 5.636-49.091t17.636-46.727 34.545-36.727 52.727-14q52 0 80.727 37.636t28.727 109.636z" />
<glyph unicode="&#x75;" glyph-name="uni75" horiz-adv-x="417" d="M16.364 257.091q0 30.909 5.091 60.364t17.636 58.727 31.636 50.909 49.636 35.273 69.091 13.636q37.455 0 67.636-15.455t47.273-44.909l5.818 48.364h60.364v-546.545h-67.273v204.364q-22.545-28.364-50.909-43.273t-68.727-16q-73.091 0-119.273 52.182t-48 142.364zM85.455 268.364q0-72 29.091-109.636t81.091-37.636q24 0 43.273 9.455t31.455 24.364 20.182 34.727 11.273 39.091 3.273 38.909q0 146.909-113.818 150.909-50.909 0-78.364-41.091t-27.455-109.091z" />
<glyph unicode="&#x76;" glyph-name="uni76" horiz-adv-x="248" d="M221.455 404.727q-56 0-90.909-26t-34.909-71.455v-234.545h-67.273v391.273h64.727v-66.182q34.182 74.909 128.364 74.909v-68z" />
<glyph unicode="&#x77;" glyph-name="uni77" horiz-adv-x="374" d="M349.091 190.909q0-56.364-41.273-93.273t-112.909-36.909q-35.273 0-64 7.455t-51.818 23.455-36.909 43.091-16.364 63.818h64.727q0-80 104.364-80 36.727 0 62.727 15.636t26 45.455q0 16-8.364 25.455t-37.091 20-89.818 25.091q-17.455 4.364-29.636 8.182t-28.364 11.818-26.182 17.818-17.273 26-7.273 36.182q0 59.273 41.636 92.182t106.727 32.909q36 0 63.818-9.455t43.091-22.909 25.273-31.455 13.091-31.818 3.818-27.636h-64q0 32-23.273 48.727t-68.727 16.727q-5.455 0-10.909-0.364t-15.273-2-17.818-5.273-16.182-9.455-12.909-15.636-5.455-22.545q0-24 22.727-34.727t97.273-28.545q8.364-1.818 12.727-2.909 20-5.455 34.727-10.909t30.364-14.182 25.455-19.273 16.364-26 6.909-34.727z" />
<glyph unicode="&#x78;" glyph-name="uni78" horiz-adv-x="207" d="M195.636 119.273v-55.273q-20.727-4.364-34.545-4.364-42.909 0-69.636 24.364t-26.727 59.273v261.455h-50.909v59.273h50.909v110.545h67.273v-110.545h63.636v-59.273h-63.636v-247.636q0-21.455 8.182-30.909t27.818-9.455q12 0 27.636 2.545z" />
<glyph unicode="&#x79;" glyph-name="uni79" horiz-adv-x="417" d="M42.182 464h68v-244.727q0-22.182 3.636-39.091t12-30.727 23.818-21.091 37.273-7.273q46.909 0 78.727 32.364t31.818 87.273v223.273h67.273v-391.273h-64.727v56.727q-5.091-8.727-15.636-19.091t-26.182-21.636-37.818-18.727-45.455-7.455q-60.364 0-96.545 34.727t-36.182 106.364v260.364z" />
<glyph unicode="&#x7a;" glyph-name="uni7A" horiz-adv-x="374" d="M359.273 464l-149.091-391.273h-70.545l-142.182 391.273h74.909l106.909-320.727 109.455 320.727h70.545z" />
<glyph unicode="&#x7b;" glyph-name="uni7B" horiz-adv-x="541" d="M530.182 464l-113.091-391.273h-68.727l-78.545 302.545-78.545-302.545h-68.727l-112.364 391.273h71.636l74.182-308.364 80 308.364h73.455l76.727-308.364 78.545 308.364h65.455z" />
<glyph unicode="&#x7c;" glyph-name="uni7C" horiz-adv-x="374" d="M366.182 72.727h-84.364l-96.364 147.273-94.909-147.273h-82.909l138.182 201.818-131.273 189.455h84.727l90.182-138.545 91.636 138.545h79.273l-132-190.545z" />
<glyph unicode="&#x7d;" glyph-name="uni7D" horiz-adv-x="374" d="M366.182 464q-60.364-171.636-114.364-314.727t-66.364-167.818q-24-48.364-54.182-62.364t-85.455-1.636v60.364q12.727-4.727 23.091-6.727t21.818-1.091 21.091 8 16.545 20.545l26.909 62.182-146.545 403.273h74.182l106.545-319.636 106.182 319.636h70.545z" />
<glyph unicode="&#x7e;" glyph-name="asciitilde" horiz-adv-x="711" d="M117.76 848.64l8.192-123.904h10.24l5.12 3.072q80.896 136.192 251.904 136.192 133.12 0 217.088-100.352 84.992-102.4 84.992-260.096 0-135.168-53.76-226.816t-152.064-132.608q-58.368-23.552-118.784-23.552-72.704 0-130.048 30.208t-87.040 80.384l-2.048 3.072h-11.264l-3.072-7.168v-387.072h-115.712v779.264q0 89.088-6.144 229.376h102.4zM137.216 425.728q0-31.744 6.144-56.32 18.432-67.584 73.728-113.664t131.072-46.080q108.544 0 168.448 81.92t59.904 205.824q0 115.712-60.416 195.584t-162.816 79.872q-76.8 0-133.12-48.128t-73.728-118.784q-9.216-33.792-9.216-54.272v-125.952z" />
<glyph unicode="&#x7f;" glyph-name="uni7F" horiz-adv-x="374" d="M350.909 72.727h-327.636v50.909l235.273 285.091h-217.091v55.273h301.455v-54.182l-233.455-283.636h241.455v-53.455z" />
<glyph unicode="&#x80;" glyph-name="uni80" d="M100 642h24c8-30 34-52 66-52s58 22 66 52h14c8-30 34-52 66-52s58 22 66 52h14c8-30 34-52 66-52s58 22 66 52h394c10 0 18 8 18 18s-8 18-18 18h-394c-8 28-34 50-66 50s-58-22-66-50h-14c-8 28-34 50-66 50s-58-22-66-50h-14c-8 28-34 50-66 50s-58-22-66-50h-24c-10 0-18-8-18-18s8-18 18-18zM482 692c18 0 34-14 34-32s-16-34-34-34c-18 0-32 16-32 34s14 32 32 32zM336 692c18 0 34-14 34-32s-16-34-34-34c-18 0-32 16-32 34s14 32 32 32zM190 692c18 0 34-14 34-32s-16-34-34-34c-18 0-32 16-32 34s14 32 32 32zM942 422h-174c-8 30-36 50-68 50-30 0-58-20-66-50h-12c-8 30-36 50-66 50-32 0-60-20-68-50h-232c-8 30-34 50-66 50s-58-20-66-50h-24c-10 0-18-8-18-18s8-18 18-18h24c8-30 34-50 66-50s58 20 66 50h232c8-30 36-50 68-50 30 0 58 20 66 50h12c8-30 36-50 66-50 32 0 60 20 68 50h174c10 0 18 8 18 18s-8 18-18 18zM190 372c-18 0-32 14-32 32s14 32 32 32c18 0 34-14 34-32s-16-32-34-32zM556 372c-20 0-34 14-34 32s14 32 34 32c18 0 32-14 32-32s-14-32-32-32zM700 372c-18 0-32 14-32 32s14 32 32 32c20 0 34-14 34-32s-14-32-34-32zM942 166h-30c-8 30-34 52-66 52-30 0-58-22-66-52h-12c-8 30-36 52-68 52-30 0-58-22-66-52h-12c-8 30-36 52-66 52-32 0-60-22-68-52h-388c-10 0-18-8-18-18s8-18 18-18h388c8-28 36-50 68-50 30 0 58 22 66 50h12c8-28 36-50 66-50 32 0 60 22 68 50h12c8-28 36-50 66-50 32 0 58 22 66 50h30c10 0 18 8 18 18s-8 18-18 18zM556 116c-20 0-34 14-34 32s14 34 34 34c18 0 32-16 32-34s-14-32-32-32zM700 116c-18 0-32 14-32 32s14 34 32 34c20 0 34-16 34-34s-14-32-34-32zM846 116c-18 0-32 14-32 32s14 34 32 34c18 0 34-16 34-34s-16-32-34-32z" />
<glyph unicode="&#x81;" glyph-name="uni81" d="M510 848c-244 0-440-198-440-440s196-440 440-440c242 0 440 198 440 440s-198 440-440 440zM510 4c-224 0-404 182-404 404 0 224 180 404 404 404 222 0 404-180 404-404 0-222-182-404-404-404zM758 422h-226v226c0 10-8 18-18 18s-18-8-18-18v-226h-226c-10 0-18-8-18-18s8-18 18-18h226v-226c0-10 8-18 18-18s18 8 18 18v226h226c10 0 18 8 18 18s-8 18-18 18z" />
<glyph unicode="&#x82;" glyph-name="uni82" d="M552 346c-10 14-26 22-44 22s-34-8-44-22l-244-300c-6-10-10-22-10-36 0-2 2-6 2-10s2-8 4-12c10-18 28-30 48-30l488 2c4 0 8 0 12 0l4 2c4 2 6 2 10 4 0 0 2 2 2 2 4 2 8 4 10 6 0 2 0 2 0 2 4 4 8 8 10 12 8 20 8 40-6 58zM768 4c-2 0-2-2-4-4 0 0 0 0 0 0-2 0-2-2-4-2 0-2-2-2-4-2s-4-2-4-2h-488c-6 0-12 4-16 10 0 2 0 2-2 6 0 0 0 2 0 2 0 4 0 8 4 12l244 300c2 6 8 8 14 8s12-2 16-8l242-300c4-6 4-12 2-20zM936 850h-856c-10 0-18-8-18-18v-608c0-10 8-18 18-18h186c10 0 18 8 18 18s-8 18-18 18h-168v572h820v-572h-168c-10 0-18-8-18-18s8-18 18-18h186c10 0 18 8 18 18v608c0 10-8 18-18 18z" />
<glyph unicode="&#x83;" glyph-name="uni83" d="M938 162l-332 584c-20 34-56 56-94 56-40 0-76-22-96-56l-332-584c-18-34-18-76 0-110 20-32 56-54 96-54h664c38 0 74 22 94 54 20 34 20 76 0 110zM906 70c-12-22-36-36-62-36h-664c-26 0-52 14-64 36-14 24-14 52 0 74l332 584c12 24 38 38 64 38s50-14 62-38l334-584c12-24 12-50-2-74zM512 574c-10 0-18-8-18-16v-266c0-10 8-18 18-18s18 8 18 18v266c0 8-8 16-18 16zM512 194c-10 0-18-8-18-18v-10c0-10 8-18 18-18s18 8 18 18v10c0 10-8 18-18 18z" />
<glyph unicode="&#x84;" glyph-name="uni84" d="M512 646c-10 0-18-8-18-18v-258c0-8 8-18 18-18s18 10 18 18v258c0 10-8 18-18 18zM512 276c0 0 0 0 0 0-10 0-18-8-18-18v-8c0-10 8-18 18-18v0c10 0 18 8 18 18v8c0 10-8 18-18 18zM906 256l-306 538c-18 32-52 52-88 52s-70-20-88-52l-306-538c-18-32-18-70 0-102s52-50 88-50h24v-114c0-14 10-26 22-30 4-2 8-4 12-4 10 0 20 4 24 10l150 138h380c36 0 70 18 88 50s18 70 0 102zM874 172c-12-20-34-32-56-32h-386c-4 0-8-2-12-6l-154-140v128c0 10-8 18-18 18h-42c-22 0-44 12-56 32s-12 46 0 66l304 538c12 20 34 34 58 34s46-14 58-34l304-538c12-20 12-46 0-66z" />
<glyph unicode="&#x85;" glyph-name="uni85" d="M940 602l-232 234c-10 8-22 14-34 14h-330c-12 0-24-6-34-14l-232-234c-8-8-14-20-14-32v-330c0-12 6-24 14-34l232-232c10-10 22-14 34-14h330c12 0 24 4 34 14l232 232c10 10 14 22 14 34v330c0 12-4 24-14 32zM918 240c0-4-2-6-4-8l-232-232c-2-4-6-4-8-4h-330c-2 0-6 0-8 4l-232 232c-2 2-4 6-4 8v330c0 2 2 6 4 8l232 232c2 2 6 4 8 4h330c2 0 6-2 8-4l232-232c2-2 4-6 4-8v-330zM696 584c-6 8-18 8-24 0l-162-162-162 162c-8 8-20 8-26 0-8-6-8-18 0-26l162-162-162-162c-8-6-8-18 0-24 4-4 8-6 12-6 6 0 10 2 14 6l162 162 162-162c2-4 8-6 12-6s10 2 12 6 8 18 0 24l-162 162 162 162c8 8 8 20 0 26z" />
<glyph unicode="&#x86;" glyph-name="uni86" d="M938 194l-208 208 206 206c8 8 12 18 12 30 0 10-4 20-12 28l-158 158c-16 14-42 14-58 0l-206-206-206 206c-16 14-42 14-58 0l-160-160c-16-16-16-42 0-58l206-206-206-206c-6-8-12-18-12-28 0-12 6-22 12-28l160-160c14-14 40-14 56 0l206 206 208-208c8-8 18-12 28-12s20 4 28 12l162 162c6 6 10 18 10 28s-4 20-10 28zM912 162l-160-160c-2-2-4-4-8 0l-220 220c-4 4-8 4-12 4-6 0-10 0-12-4l-218-218c-4-2-6-2-8 0l-158 158c-2 2-2 2-2 4 0 0 0 2 2 4l218 218c6 6 6 18 0 24l-220 220c-2 2-2 4 0 6l162 162c0 0 4 0 6 0l220-220c6-6 18-6 24 0l220 220c2 0 6 0 6 0l160-160c0 0 0-2 0-2 0-2 0-4 0-4l-220-220c-4-2-6-8-6-12s2-10 6-12l220-220c2-2 2-2 2-4s0-2-2-4z" />
<glyph unicode="&#x87;" glyph-name="uni87" d="M940 212l-80 152c0 0 0 0-2 2 0 0 0 2-2 2 0 2-2 2-2 2-2 0-2 2-4 2 0 0-2 0-4 0 0 0 0 2-2 2 0 0 0 0 0 0-2 0-2-2-4-2 0 0-2 0-4 0 0 0 0 0 0 0l-152-80c-8-4-12-14-8-24 6-8 16-12 24-8l126 64c-16-156-144-278-302-288v544h120c10 0 18 8 18 18s-8 18-18 18h-84c20 16 32 40 32 66 0 48-38 86-86 86-46 0-86-38-86-86 0-26 14-50 34-66h-84c-10 0-18-8-18-18s8-18 18-18h118v-544c-156 10-284 132-300 288l126-64c8-4 18 0 24 8 4 10 0 20-8 24l-152 80c0 0 0 0-2 0 0 0-2 0-2 0-2 0-2 2-4 2 0 0 0 0 0 0-2 0-2-2-4-2 0 0-2 0-2 0-2 0-2-2-4-2 0 0-2 0-2-2-2 0-2-2-4-2 0-2 0-2 0-2l-80-152c-4-10 0-20 8-24 2-2 6-2 8-2 6 0 14 2 16 8l52 98c28-166 174-292 348-292 176 0 322 126 350 292l52-98c2-6 8-8 16-8 2 0 4 0 8 2 8 4 12 14 8 24zM506 732c28 0 52-22 52-50s-24-50-52-50c-26 0-50 22-50 50s24 50 50 50z" />
<glyph unicode="&#x88;" glyph-name="uni88" d="M400 438c74 0 126 74 126 186 0 108-48 218-126 218-76 0-134-88-134-202 0-112 58-202 134-202zM400 806c48 0 90-86 90-182 0-90-36-150-90-150s-98 76-98 166c0 90 44 166 98 166zM632 438c66 0 118 90 118 202 0 114-52 202-118 202-60 0-94-72-94-202s34-202 94-202zM632 806c40 0 82-66 82-166 0-98-42-166-82-166-36 0-58 62-58 166s22 166 58 166zM904 490c-6 66-34 80-56 80-38 0-76-42-80-46-90-88-94-142-18-256 18-24 36-36 56-36 14 0 28 6 42 20 38 42 62 150 56 238zM820 276c-4-4-8-8-14-8-8 0-16 6-26 20-66 98-62 136 16 212 12 14 36 34 52 34 14 0 18-32 20-46 6-78-16-178-48-212zM242 544c-20 20-38 30-58 30-54 0-70-82-72-94-12-92 2-170 40-212 18-20 38-30 62-30s50 12 74 36c68 70 52 168-46 270zM178 292c-30 34-40 102-30 182 2 20 18 64 36 64 8 0 20-6 32-18 48-52 120-146 46-222-30-30-60-32-84-6zM514 408c-66 0-108-66-116-78-154-178-148-264-130-312 8-22 24-34 46-34 28 0 64 20 110 46 56 34 114 34 164 4 18-12 32-24 44-36 16-16 32-32 54-32 12 0 24 4 38 12 28 16 44 38 50 64 14 66-46 156-138 284-38 54-80 82-122 82zM738 48c-4-16-14-28-32-40-22-12-28-8-50 14-12 14-28 28-50 42-30 18-62 28-94 28-36 0-72-10-106-30s-72-42-92-42c-8 0-10 2-12 10-16 40-20 114 124 278l4 4c0 0 34 60 84 60 30 0 62-22 94-68 82-116 140-204 130-256z" />
<glyph unicode="&#x89;" glyph-name="uni89" d="M468 676h-160c-12 0-24-10-24-24v-144c0-12 12-24 24-24h62v-2c0-52-20-52-32-52-14 0-24-10-24-24v-52c0-14 10-24 24-24 46 0 84 16 112 46 28 28 42 78 42 146v130c0 14-10 24-24 24zM456 522c0-58-10-100-32-122-18-20-44-32-74-34v28c24 4 56 22 56 88v38h-86v122h136v-120zM706 676h-160c-12 0-24-10-24-24v-144c0-12 12-24 24-24h62v-2c0-52-22-52-32-52-14 0-24-10-24-24v-52c0-14 10-24 24-24 48 0 84 16 112 46 28 28 42 78 42 146v130c0 14-12 24-24 24zM694 522c0-58-12-100-32-122-18-20-44-32-74-34v28c24 4 56 22 56 88v38h-86v122h136zM646 840h-282c-162 0-296-144-296-322 0-150 96-280 230-314v-204c0-6 4-14 10-16 2-2 6-2 8-2 4 0 8 2 12 4l236 210h82c164 0 298 144 298 322s-134 322-298 322zM646 232h-88c-4 0-8-2-12-4l-212-188v178c0 8-6 16-14 18-126 24-216 142-216 282 0 158 116 286 260 286h282c144 0 262-128 262-286s-118-286-262-286z" />
<glyph unicode="&#x8a;" glyph-name="uni8A" d="M812 846h-606c-10 0-18-8-18-18v-854c0-10 8-18 18-18h606c10 0 18 8 18 18v854c0 10-8 18-18 18zM794 810v-386h-570v386zM224-8v396h570v-396zM566 312c-10 0-18-8-18-16v-42h-78v42c0 8-8 16-18 16s-18-8-18-16v-60c0-10 8-18 18-18h114c10 0 18 8 18 18v60c0 8-8 16-18 16zM452 626h114c10 0 18 8 18 18v60c0 10-8 18-18 18s-18-8-18-18v-42h-78v42c0 10-8 18-18 18s-18-8-18-18v-60c0-10 8-18 18-18z" />
<glyph unicode="&#x8b;" glyph-name="uni8B" d="M844 514l-338 36v116c0 6 0 10-2 14 0 2 0 2-2 4 0 4-2 8-4 10l-2 4c-2 2-4 6-6 8l-4 2c-2 4-8 8-12 10-18 10-42 8-60-6l-322-262c-16-10-24-28-24-46s8-36 22-46l324-262c10-8 22-10 34-10h4c2 0 6 0 10 0 4 2 8 2 12 4 20 10 32 30 32 52v118l338 34c58 2 108 50 108 110s-50 110-108 110zM842 330l-372-38v-150c0-8-4-16-12-20-2 0-2 0-4 0s-4 0-4 0h-2c-4 0-8 0-12 2l-324 264c-6 4-8 10-8 16 0 8 2 14 10 18l322 262c4 2 8 4 12 4s8-2 10-2c2-2 4-2 6-4 0-2 2-2 2-6 2 0 2-2 4-4 0-2 0-4 0-6v-150l372-38c40 0 74-34 74-74s-34-74-74-74z" />
<glyph unicode="&#x8c;" glyph-name="uni8C" d="M176 294l338-34v-118c0-4 0-10 2-14 0 0 0-2 0-4 2-4 4-6 6-10v-2c2-4 4-6 8-10l2-2c4-4 8-6 12-8 20-10 42-8 60 4l324 262c14 10 24 28 24 46s-10 36-24 46l-324 264c-10 6-20 10-34 10h-2c-4 0-8 0-10-2-4 0-10-2-14-4-18-10-30-30-30-52v-116l-338-36c-60 0-108-50-108-110s48-108 108-110zM178 478l372 40v148c0 8 4 16 12 20 0 0 2 0 4 2 0 0 2 0 4 0v0c6 0 10-2 12-4l324-262c6-4 10-10 10-18 0-6-4-12-10-18l-322-260c-4-4-8-6-14-6-2 0-6 2-8 4-2 0-4 2-6 4-2 0-2 2-4 4 0 2 0 2-2 6 0 0 0 2 0 4v150l-372 38c-42 0-74 34-74 74 0 42 32 74 74 74z" />
<glyph unicode="&#x8d;" glyph-name="uni8D" d="M776 358c-8 6-20 6-26 0-8-8-8-18 0-26l110-110h-738c-10 0-18-8-18-18s8-18 18-18h738l-110-108c-8-8-8-18 0-26 4-4 8-6 12-6 6 0 10 2 14 6l140 140c6 8 6 18 0 26zM122 598h738l-110-110c-8-6-8-18 0-24 4-4 8-6 12-6 6 0 10 2 14 6l140 140c6 6 6 18 0 24l-140 140c-8 8-20 8-26 0-8-6-8-18 0-26l110-108h-738c-10 0-18-8-18-18s8-18 18-18z" />
<glyph unicode="&#x8e;" glyph-name="uni8E" d="M902 184c0 4-2 6-2 6l-158 156c-6 8-18 8-24 0-8-6-8-18 0-24l126-126h-194c-2 0-70 0-108 38-46 46-2 90-56 144-14 16-32 26-50 34 18 6 36 16 50 32 22 20 32 48 32 78-2 76 72 104 132 104h192l-124-126c-8-6-8-18 0-24 4-4 8-6 12-6s10 2 12 6l158 156c0 0 2 2 2 6 2 4 2 8 0 12 0 4-2 6-2 6l-158 156c-6 8-18 8-24 0-8-6-8-18 0-24l124-126h-192c-78 0-170-40-168-140 0-22-6-38-20-54-40-38-120-38-120-38h-204c-10 0-18-8-18-18s8-18 18-18h204c0 0 80-2 120-40 40-42-4-86 54-144 48-50 130-50 134-50h192l-124-126c-8-6-8-18 0-24 4-4 8-6 12-6s10 2 12 6l158 156c0 2 2 4 2 6 2 4 2 8 0 12z" />
<glyph unicode="&#x8f;" glyph-name="uni8F" d="M106 610c0-2 2-4 4-6l140-140c4-4 8-6 12-6 6 0 10 2 14 6 6 6 6 18 0 26l-110 108h738c10 0 18 8 18 18s-8 18-18 18h-738l110 110c6 6 6 18 0 26-8 6-20 6-26 0l-140-140c-2-2-4-4-4-6s-2-6-2-8c0-2 2-4 2-6zM920 212c0 2-2 4-4 6l-140 140c-6 8-18 8-24 0-8-6-8-18 0-26l108-108h-738c-10 0-18-8-18-18s8-18 18-18h738l-108-110c-8-6-8-18 0-24 2-4 8-6 12-6s10 2 12 6l140 138c2 2 4 4 4 6 2 2 2 6 2 8s0 4-2 6z" />
<glyph unicode="&#x90;" glyph-name="uni90" d="M940 204c-6 8-18 8-26 0l-106-106v468c0 88-72 160-160 160s-160-72-160-160v-334c0-68-56-124-124-124s-124 56-124 124v468l108-108c4-4 8-4 12-4 6 0 10 0 14 4 6 8 6 18 0 26l-138 138c-8 6-20 6-26 0l-138-138c-8-8-8-18 0-26 6-6 18-6 26 0l106 108v-468c0-88 72-160 160-160s160 72 160 160v334c0 68 56 124 124 124s124-56 124-124v-468l-108 106c-8 8-18 8-26 0-6-6-6-18 0-24l138-138c4-4 8-6 14-6 4 0 8 2 12 6l138 138c8 6 8 18 0 24z" />
<glyph unicode="&#x91;" glyph-name="uni91" d="M910 410c2 4 2 8 0 12s-2 6-4 6l-140 140c-8 8-18 8-26 0-6-6-6-18 0-24l110-110h-254v348c0 10-8 18-18 18s-18-8-18-18v-732c0-10 8-18 18-18s18 8 18 18v348h254l-110-110c-6-6-6-18 0-24 4-4 8-6 14-6 4 0 8 2 12 6l140 140c2 0 2 2 4 6zM442 800c-10 0-18-8-18-18v-348h-254l110 110c8 6 8 18 0 24-6 8-18 8-26 0l-140-140c0 0-2-2-4-6 0-4 0-8 0-12 2-4 4-6 4-6l140-140c4-4 8-6 14-6 4 0 8 2 12 6 8 6 8 18 0 24l-110 110h254v-348c0-10 8-18 18-18s18 8 18 18v732c0 10-8 18-18 18z" />
<glyph unicode="&#x92;" glyph-name="uni92" d="M858 724l-126 122c-8 10-20 14-34 14h-496c-26 0-46-20-46-48v-798c0-26 20-48 46-48h622c26 0 48 22 48 48v676c0 12-6 24-14 34zM822 708h-106v104zM824 2h-622c-6 0-10 6-10 12v798c0 8 4 12 10 12h478v-134c0-10 8-18 18-18h138v-658c0-6-6-12-12-12zM740 128h-448c-10 0-18-8-18-18s8-18 18-18h448c10 0 18 8 18 18s-8 18-18 18zM740 252h-448c-10 0-18-8-18-18s8-18 18-18h448c10 0 18 8 18 18s-8 18-18 18zM292 342h124c10 0 18 8 18 18s-8 18-18 18h-124c-10 0-18-8-18-18s8-18 18-18zM292 456h124c10 0 18 8 18 18 0 8-8 16-18 16h-124c-10 0-18-8-18-16 0-10 8-18 18-18zM292 580h124c10 0 18 8 18 18s-8 18-18 18h-124c-10 0-18-8-18-18s8-18 18-18zM760 602c0 2 0 2 0 2 0 2 0 2 0 2-2 2-2 4-4 4 0 0 0 0 0 0 0 2-2 2-2 2-2 2-2 2-4 2 0 2-2 2-4 2 0 0-2 0-2 0h-226c-2 0-2 0-2 0-2 0-4 0-6-2 0 0-2 0-2-2-2 0-2 0-2-2 0 0 0 0 0 0-2 0-2-2-4-4 0 0 0 0 0-2-2 0-2 0-2-2 0 0 0-2 0-4 0 0 0 0 0 0v-238c0 0 0 0 0 0 0-2 0-2 0-4 0 0 0-2 2-2 0 0 0-2 0-2 2-2 2-2 4-4 0 0 0 0 0 0 0-2 0-2 2-2 0 0 2-2 2-2 2 0 6-2 8-2h226c2 0 4 2 6 2s2 2 4 2c0 0 2 2 2 2s0 0 0 0c2 2 2 2 4 4 0 0 0 2 0 2s0 2 0 2c2 2 2 2 2 4 0 0 0 0 0 0v238c0 0 0 0 0 0 0 2 0 4-2 4zM630 506l-70 74h142zM606 480l-70-74v148zM630 454l72-76h-142zM656 480l70 74v-148z" />
<glyph unicode="&#x93;" glyph-name="uni93" d="M908 772c-28 28-66 44-106 44s-78-16-106-44l-406-406c-42-42-42-108 0-150 20-20 46-32 76-32 28 0 54 12 74 32l296 296c8 6 8 18 0 26-6 6-18 6-24 0l-296-298c-28-26-74-26-100 0-28 28-28 74 0 100l406 406c20 22 50 34 80 34s60-12 82-34c44-44 44-118 0-162l-508-506c-62-62-162-62-224 0-30 28-46 68-46 112 0 42 16 82 46 112l398 398c6 6 6 18 0 24-8 8-20 8-26 0l-398-398c-36-36-56-84-56-136s20-102 56-138c38-38 88-58 138-58s100 20 138 58l506 506c60 60 60 154 0 214z" />
<glyph unicode="&#x94;" glyph-name="uni94" d="M658 304c-10 0-18-8-18-18v-270l-112 114c-8 6-20 6-26 0l-114-114v270c0 10-8 18-18 18s-18-8-18-18v-312c0-8 6-14 12-18 2 0 4 0 6 0 6 0 10 0 14 4l130 132 132-132c4-4 12-6 18-4 8 4 12 10 12 18v312c0 10-8 18-18 18zM756 676c-14 34-44 56-80 60-4 36-26 68-58 84-34 14-72 8-100-14-28 24-66 30-100 18-34-14-58-44-62-80-36-2-66-24-82-58-14-34-8-72 14-100-24-26-32-64-18-98 12-34 44-58 80-62 2-36 24-68 58-82 32-16 72-10 100 12 18-16 40-24 64-24 12 0 24 2 34 6 34 14 58 44 62 80 36 4 68 26 82 58 16 34 10 72-12 100 24 28 30 66 18 100zM700 564c22-20 28-48 18-74-12-24-38-38-66-36-4 2-10 0-14-4s-6-10-6-14c2-28-12-54-38-64s-56-2-72 20c-4 4-8 8-14 8 0 0 0 0 0 0-6 0-10-4-14-6-18-22-48-28-72-18-24 12-40 38-36 66 0 4-2 10-6 14-2 4-8 6-14 4-28-2-54 14-62 40-10 26-2 54 20 72 4 4 6 8 6 14 0 4-2 10-6 14-20 18-28 46-16 72 10 24 36 40 64 36 6 0 10 2 14 4 4 4 6 10 6 16-2 28 14 52 40 62 24 10 54 2 72-20 2-4 8-6 12-6 6 0 12 2 14 6 18 20 48 28 74 16 24-10 38-36 36-64-2-6 0-12 4-14 4-4 10-6 14-6 28 2 54-14 64-40s2-54-20-72c-4-2-8-8-8-12 0-6 2-12 6-14zM552 670c-14 4-26 8-40 8-38 0-72-24-88-58-20-48 2-106 50-126 12-6 26-8 38-8 38 0 72 22 88 56 22 48 0 106-48 128zM568 556c-10-20-32-34-56-34-8 0-16 0-24 4-30 14-44 50-30 80 10 22 30 36 54 36 8 0 18-2 24-6 32-14 44-48 32-80z" />
<glyph unicode="&#x95;" glyph-name="uni95" d="M788 402c-24 60-82 100-148 100-6 0-14 0-20-2-38 30-78 44-124 44-102 0-184-70-204-170-44-30-70-76-70-122 0-84 68-150 152-150h418c88 0 160 68 160 150s-76 152-164 150zM792 138h-418c-64 0-116 50-116 114 0 36 24 74 60 96 4 2 6 6 8 12 14 88 84 148 170 148 40 0 74-12 106-40 4-4 10-4 14-4 8 2 18 2 24 2 54 0 104-36 120-88 2-8 10-14 18-12 4 0 10 0 14 0 68 0 124-52 124-114s-56-114-124-114zM768 56c-10 0-18-8-18-18v-32c0-6-6-12-12-12h-622c-6 0-12 6-12 12v800c0 6 6 12 12 12h478v-136c0-10 8-18 18-18h138v-128c0-10 8-18 18-18s18 8 18 18v146c0 12-6 24-16 34l-124 124c-10 8-22 14-34 14h-496c-26 0-48-22-48-48v-800c0-26 22-48 48-48h622c26 0 48 22 48 48v32c0 10-8 18-18 18zM736 700h-106v104z" />
<glyph unicode="&#x96;" glyph-name="uni96" d="M950 446c-2 6-4 10-10 14l-80 48 40 86c2 6 2 12 0 16-4 6-8 10-14 10l-94 16 4 94c0 6-2 10-6 14s-10 6-16 4l-92-22-34 88c0 6-6 10-10 12-6 2-12 0-16-2l-78-56-64 70c-4 4-8 6-14 4-6 0-12-2-14-8l-50-80-86 40c-6 2-10 2-16-2-4-2-8-6-10-12l-14-94-94 4c-6 0-12-2-16-6-4-6-4-12-4-16l22-92-88-34c-6-2-10-6-10-12-2-4-2-10 2-16l56-76-70-64c-4-4-6-10-6-16 0-4 4-10 8-12l82-50-40-86c-2-6-2-12 0-16 4-6 8-8 14-10l92-14-2-96c0-6 2-10 6-14s10-6 16-4l92 22 32-88c2-6 6-10 12-12s12 0 16 4l76 54 66-68c2-4 8-6 12-6 2 0 2 0 2 0 6 0 10 4 14 8l50 80 86-38c4-4 10-2 16 0 4 2 8 8 8 12l16 94 94-4c0 0 2 0 2 0s0 0 0 0c10 0 18 8 18 18 0 4-2 6-2 8l-22 90 90 32c4 2 8 6 10 12 2 4 2 10-2 16l-56 76 70 64c4 4 6 10 6 16zM838 382c-6-6-8-16-2-24l50-70-80-30c-10-4-14-14-12-22l20-84-86 2c-10 2-18-6-20-14l-12-86-80 36c-8 4-18 0-22-6l-46-76-60 64c-4 4-8 6-12 6s-8 0-12-2l-70-52-30 82c-4 8-12 12-22 10l-84-20 4 88c0 8-6 16-16 18l-86 14 36 78c4 10 2 20-6 24l-74 46 64 58c6 6 8 16 2 24l-52 70 82 32c8 2 14 12 12 20l-20 84 86-2c10-2 18 6 18 14l14 86 80-36c8-4 18 0 22 8l46 74 60-64c6-8 16-8 24-2l70 50 30-82c2-8 12-12 20-10l86 20-4-88c0-8 6-16 16-18l86-14-38-78c-2-8 0-18 8-24l74-46z" />
<glyph unicode="&#x97;" glyph-name="uni97" d="M832 270c-4 0-8 0-12-2l-78 136 78 134c4 0 8 0 12 0 32 0 58 26 58 58s-26 58-58 58c-26 0-48-16-56-40h-154l-74 130c10 10 16 24 16 38 0 32-26 60-58 60s-60-28-60-60c0-14 6-28 16-38l-74-130h-154c-8 24-28 40-54 40-34 0-60-26-60-58s26-58 60-58c4 0 8 0 12 0l76-134-76-136c-4 2-8 2-12 2-34 0-60-26-60-58s26-60 60-60c26 0 46 18 54 42h154l74-130c-10-10-16-24-16-40 0-32 28-58 60-58s58 26 58 58c0 16-6 30-16 40l74 130h154c8-24 30-42 56-42 32 0 58 28 58 60s-26 58-58 58zM832 618c12 0 22-10 22-22s-10-22-22-22c-12 0-22 10-22 22s10 22 22 22zM506 806c12 0 22-10 22-24 0-12-10-22-22-22-14 0-24 10-24 22 0 14 10 24 24 24zM156 596c0 12 10 22 24 22 12 0 22-10 22-22s-10-22-22-22c-14 0-24 10-24 22zM180 188c-14 0-24 10-24 24 0 12 10 22 24 22 12 0 22-10 22-22 0-14-10-24-22-24zM506 2c-14 0-24 10-24 22s10 22 24 22c12 0 22-10 22-22s-10-22-22-22zM612 230c-6 0-12-4-16-10l-78-138c-4 0-8 0-12 0s-8 0-12 0l-80 138c-4 6-8 10-16 10h-164c-2 8-6 14-12 20l82 144c4 6 4 12 0 18l-82 144c6 6 10 14 12 22h164c8 0 12 4 16 8l80 140c4-2 8-2 12-2s8 0 12 2l78-140c4-4 10-8 16-8h164c2-8 8-16 12-22l-82-144c-2-6-2-12 0-18l82-144c-4-6-10-12-12-20h-164zM832 188c-12 0-22 10-22 24 0 12 10 22 22 22s22-10 22-22c0-14-10-24-22-24z" />
<glyph unicode="&#x98;" glyph-name="uni98" d="M770 294l-14 52c8 0 18-2 28-4 4-2 8-2 10-2 4 2 8 4 10 8s2 8 0 12c-2 6-8 10-10 10-16 6-30 8-46 6v4c-2 6-10 12-18 10s-12-10-10-18l2-4c-32-12-48-38-40-66 6-28 26-40 66-40 0 0 2 0 2 0l16-54c-14-2-28 2-42 8-4 2-8 2-10 2-4-2-8-4-10-8-2-2-2-6-2-10 2-6 6-10 10-12 20-8 40-12 60-8l4-14c2-6 8-10 14-10 0 0 2 0 4 0s6 2 8 6c2 4 2 8 2 10l-4 14c32 14 48 40 40 68s-28 42-70 40zM792 214l-14 50c22-2 30-8 32-18 4-14-4-26-18-32zM712 312c-4 12 2 22 18 30l12-48c-24 0-28 8-30 18zM940 322c-22 82-96 138-180 138-18 0-34-2-50-6-100-28-160-130-132-230 22-82 96-140 180-140 18 0 34 2 50 6 48 14 90 46 114 88 26 44 32 94 18 144zM890 196c-20-34-52-60-92-70-12-4-26-6-40-6-68 0-128 46-146 112-22 82 26 166 108 188 12 2 26 4 40 4 68 0 128-46 146-112 10-40 6-80-16-116zM782 60c-10 0-18-8-18-18v-44h-526v640h94v-80c0-10 8-18 18-18s18 8 18 18v80h270v-80c0-10 8-18 18-18s18 8 18 18v80h90v-126c0-10 8-18 18-18s18 8 18 18v144c0 10-8 18-18 18h-108c0 92-76 168-170 168h-2c-94 0-170-76-170-168h-112c-10 0-18-8-18-18v-676c0-10 8-18 18-18h562c10 0 18 8 18 18v62c0 10-8 18-18 18zM502 806h2c74 0 134-60 134-132h-270c0 72 60 132 134 132z" />
<glyph unicode="&#x99;" glyph-name="uni99" d="M928 284l-174 172c-6 6-14 8-22 8h-142c-2 0-6 0-8-2-2 0-2 0-2 0s-2 0-2-2c-4 0-8-2-10-6-6-4-8-12-8-20v-142c0-8 4-16 10-22l174-172c2-2 6-4 10-6 0 0 2-2 2-2 2 0 4 0 8 0 0-2 0-2 2-2 0 0 0 0 0 0 2 0 6 2 8 2 0 0 2 0 2 2 2 0 2 0 2 0 4 2 6 4 10 6l140 142c6 6 8 14 8 22s-2 16-8 22zM766 128l-170 166v134h134l168-166zM622 400c-20-18-20-48 0-66 8-8 20-14 32-14s24 6 34 14c18 18 18 48 0 66s-50 18-66 0zM662 360c-4-4-12-4-16 0s-4 12 0 16c2 2 6 2 8 2 4 0 6 0 8-2 4-4 4-12 0-16zM784 60c-10 0-18-8-18-18v-44h-528v640h94v-80c0-10 8-18 18-18s18 8 18 18v80h270v-80c0-10 8-18 18-18s18 8 18 18v80h92v-144c0-10 8-18 18-18 8 0 18 8 18 18v162c0 10-10 18-18 18h-110c0 92-76 168-170 168h-2c-94 0-170-76-170-168h-112c-10 0-18-8-18-18v-676c0-10 8-18 18-18h564c8 0 18 8 18 18v62c0 10-10 18-18 18zM502 806h2c74 0 134-60 134-132h-270c0 72 60 132 134 132z" />
<glyph unicode="&#x9a;" glyph-name="uni9A" d="M914 500h-20v80c0 28-22 50-50 50h-722c-28 0-50-22-50-50v-394c0-28 22-50 50-50h722c28 0 50 22 50 50v80h20c26 0 46 22 46 46v140c0 26-20 48-46 48zM924 312c0-6-4-10-10-10h-38c-10 0-18-8-18-18v-98c0-8-6-16-14-16h-722c-8 0-14 8-14 16v394c0 8 6 14 14 14h722c8 0 14-6 14-14v-98c0-10 8-18 18-18h38c6 0 10-6 10-12z" />
<glyph unicode="&#x9b;" glyph-name="uni9B" d="M278 504h-104c-10 0-18-8-18-18v-210c0-10 8-18 18-18h104c10 0 18 8 18 18v210c0 10-8 18-18 18zM260 294h-68v174h68zM914 500h-18v80c0 28-24 50-52 50h-722c-28 0-50-22-50-50v-394c0-28 22-50 50-50h722c28 0 52 22 52 50v80h18c26 0 46 22 46 46v140c0 26-20 48-46 48zM926 312c0-6-6-10-12-10h-36c-10 0-18-8-18-18v-98c0-8-8-16-16-16h-722c-8 0-14 8-14 16v394c0 8 6 14 14 14h722c8 0 16-6 16-14v-98c0-10 8-18 18-18h36c6 0 12-6 12-12v-140z" />
<glyph unicode="&#x9c;" glyph-name="uni9C" d="M278 504h-104c-8 0-18-8-18-18v-210c0-10 10-18 18-18h104c10 0 18 8 18 18v210c0 10-8 18-18 18zM260 294h-68v174h68zM450 504h-104c-10 0-18-8-18-18v-210c0-10 8-18 18-18h104c10 0 18 8 18 18v210c0 10-8 18-18 18zM432 294h-68v174h68zM914 500h-18v80c0 28-24 50-52 50h-722c-28 0-50-22-50-50v-394c0-28 22-50 50-50h722c28 0 52 22 52 50v80h18c26 0 46 22 46 46v140c0 26-20 48-46 48zM926 312c0-6-6-10-12-10h-36c-10 0-18-8-18-18v-98c0-8-8-16-16-16h-722c-8 0-14 8-14 16v394c0 8 6 14 14 14h722c8 0 16-6 16-14v-98c0-10 8-18 18-18h36c6 0 12-6 12-12z" />
<glyph unicode="&#x9d;" glyph-name="uni9D" d="M278 504h-104c-8 0-18-8-18-18v-210c0-10 10-18 18-18h104c10 0 18 8 18 18v210c0 10-8 18-18 18zM260 294h-68v174h68zM450 504h-104c-10 0-18-8-18-18v-210c0-10 8-18 18-18h104c10 0 18 8 18 18v210c0 10-8 18-18 18zM432 294h-68v174h68zM620 504h-102c-10 0-18-8-18-18v-210c0-10 8-18 18-18h102c10 0 18 8 18 18v210c0 10-8 18-18 18zM602 294h-66v174h66zM914 500h-18v80c0 28-24 50-52 50h-722c-28 0-50-22-50-50v-394c0-28 22-50 50-50h722c28 0 52 22 52 50v80h18c26 0 46 22 46 46v140c0 26-20 48-46 48zM926 312c0-6-6-10-12-10h-36c-10 0-18-8-18-18v-98c0-8-8-16-16-16h-722c-8 0-14 8-14 16v394c0 8 6 14 14 14h722c8 0 16-6 16-14v-98c0-10 8-18 18-18h36c6 0 12-6 12-12z" />
<glyph unicode="&#x9e;" glyph-name="uni9E" d="M278 504h-104c-10 0-18-8-18-18v-210c0-10 8-18 18-18h104c10 0 18 8 18 18v210c0 10-8 18-18 18zM260 294h-68v174h68zM450 504h-104c-10 0-18-8-18-18v-210c0-10 8-18 18-18h104c10 0 18 8 18 18v210c0 10-8 18-18 18zM432 294h-68v174h68zM620 504h-102c-10 0-18-8-18-18v-210c0-10 8-18 18-18h102c10 0 18 8 18 18v210c0 10-8 18-18 18zM602 294h-66v174h66zM792 504h-104c-10 0-18-8-18-18v-210c0-10 8-18 18-18h104c10 0 18 8 18 18v210c0 10-8 18-18 18zM774 294h-68v174h68zM914 500h-18v80c0 28-24 50-52 50h-722c-28 0-50-22-50-50v-394c0-28 22-50 50-50h722c28 0 52 22 52 50v80h18c26 0 46 22 46 46v140c0 26-20 48-46 48zM926 312c0-6-6-10-12-10h-36c-10 0-18-8-18-18v-98c0-8-8-16-16-16h-722c-8 0-14 8-14 16v394c0 8 6 14 14 14h722c8 0 16-6 16-14v-98c0-10 8-18 18-18h36c6 0 12-6 12-12v-140z" />
<glyph unicode="&#x9f;" glyph-name="uni9F" d="M616 366c-2 6-8 10-16 10h-70l158 228c4 4 6 12 2 18s-10 10-16 10h-74l60 144c4 6 2 12 0 18-4 4-10 8-16 8h-220c-8 0-14-6-18-12l-104-260c-2-6-2-12 2-16 4-6 8-8 14-8h72l-88-230c-2-4-2-12 2-16s8-8 14-8h88v-180c0-8 4-14 12-16 2-2 4-2 6-2 6 0 12 4 14 10l178 284c4 6 4 12 0 18zM442 136v134c0 10-8 18-18 18h-80l88 230c2 4 2 10-2 16-4 4-8 8-14 8h-70l90 224h182l-62-146c-2-6 0-12 2-16 4-6 10-8 16-8h66l-158-228c-4-6-4-12-2-18 4-6 10-10 16-10h72zM362 172h-238c-8 0-14 6-14 14v394c0 8 6 14 14 14h166c10 0 18 8 18 18s-8 18-18 18h-166c-28 0-50-22-50-50v-394c0-28 22-50 50-50h238c10 0 18 8 18 18s-8 18-18 18zM916 500h-18v80c0 28-24 50-52 50h-108c-10 0-18-8-18-18s8-18 18-18h108c8 0 16-6 16-14v-98c0-10 8-18 18-18h36c6 0 10-6 10-12v-140c0-6-4-10-10-10h-36c-10 0-18-8-18-18v-98c0-8-8-14-16-14h-298c-10 0-18-8-18-18s8-18 18-18h298c28 0 52 22 52 50v80h18c26 0 46 22 46 46v140c0 26-20 48-46 48z" />
<glyph unicode="&#xa0;" glyph-name="uniA0" d="M780 482c-22 0-46-6-66-14-12 28-24 56-32 78-8 24-16 56-20 72-2 8-4 12-4 14-10 24-32 28-42 28h-34c-10 0-18-8-18-18s8-18 18-18h34c0 0 0 0 0 0 4 0 8-2 8-4 2-2 2-6 4-10 2-12 6-32 12-52l-216-2v28c0 2 0 4 0 6 4 2 12 6 22 8 8 0 40 8 38 22 0 10-14 10-18 12-4 0-12 0-20 2-24 4-58 8-82 8-20 0-30-4-34-10-2-6 0-10 4-16 18-22 40-28 56-32v-40l-66-86c-26 14-54 24-86 24-92 0-168-76-168-168 0-94 76-168 168-168 70 0 130 42 154 104 70-12 74-12 74-12 36 0 64 28 64 64 0 8-2 14-4 20l152 140c2-4 4-8 6-12-44-30-72-80-72-136 0-94 76-168 168-168s168 74 168 168c0 92-76 168-168 168zM400 498l38-136c-10 0-22 0-40-2-8 28-24 56-46 76zM332 406c14-14 24-30 30-50-20 0-44-2-72-6zM238 182c-72 0-132 58-132 132 0 72 60 132 132 132 24 0 46-6 64-18l-60-82c-2 0-2 0-4 0-20 0-36-16-36-36 0-16 12-30 28-34 0 0 2 0 2 0 52-8 94-16 124-20-22-44-66-74-118-74zM468 274c-14 2-142 22-228 36 90 8 222 18 226 20 16 0 28-14 28-28 0-16-12-28-26-28zM504 352c-8 6-18 10-30 12l-44 156 222 2c2-8 6-16 10-24zM780 182c-72 0-132 58-132 132 0 42 20 80 52 104 30-60 60-112 62-114 4-6 10-10 16-10 4 0 6 2 10 2 8 6 10 16 6 26-2 0-32 54-64 114 16 6 32 10 50 10 74 0 132-60 132-132 0-74-58-132-132-132z" />
<glyph unicode="&#xa1;" glyph-name="uniA1" d="M764 600c-18 0-38-2-56-8-4 0-6-2-10-2 0-2-116-56-188-56-50 0-124 28-160 44-8 4-18 8-26 10l-2 2c-2 0-4 0-6 0-18 8-38 10-58 10-104 0-190-84-190-190 0-104 86-188 190-188 34 0 68 8 98 26 36 16 106 42 154 42 52 0 132-32 164-46 28-14 58-22 90-22 104 0 190 84 190 188 0 106-86 190-190 190zM764 258c-26 0-52 6-74 18 0 0-2 2-2 2-42 18-120 46-178 46-52 0-122-24-170-44 0 0-2 0-2 0-24-16-52-22-80-22-84 0-154 68-154 152 0 86 70 154 154 154 18 0 34-2 50-8 0 0 0 0 2 0v0c8-4 16-6 24-12 40-16 118-46 176-46 70 0 172 44 198 56 2 0 4 0 4 2 18 6 36 8 52 8 86 0 154-68 154-154 0-84-68-152-154-152zM764 506c-52 0-94-42-94-96 0-52 42-94 94-94s96 42 96 94c0 54-44 96-96 96zM764 352c-32 0-58 26-58 58 0 34 26 60 58 60 34 0 60-26 60-60 0-32-26-58-60-58zM258 506c-52 0-94-42-94-96 0-52 42-94 94-94s96 42 96 94c0 54-44 96-96 96zM258 352c-32 0-58 26-58 58 0 34 26 60 58 60s60-26 60-60c0-32-26-58-60-58z" />
<glyph unicode="&#xa2;" glyph-name="uniA2" d="M426 412c20-14 42-22 68-24v-22c0-6 6-14 14-14s14 8 14 14v20c42 4 70 28 70 64s-22 56-72 68v62c12-2 22-6 34-14 4-2 6-2 10-2 10 0 18 8 18 18 0 8-4 12-10 16-14 8-30 14-50 18v6c0 8-6 14-14 14s-14-6-14-14v-6c-42-4-70-28-70-62 0-38 22-56 70-68v-64c-18 2-32 10-48 20-2 4-6 4-10 4-10 0-18-8-18-18 0-6 2-12 8-16zM520 480c26-8 34-18 34-32 0-16-12-26-34-28zM464 556c0 14 10 24 30 26v-58c-24 10-30 18-30 32zM754 768l-76 70c-8 6-18 6-24 0l-68-60-66 60c-8 6-18 6-24 0l-68-60-68 60c-6 6-16 6-24 0l-76-68c-6-4-10-10-10-16v-778c0-10 8-18 18-18h478c10 0 18 8 18 18v778c0 6-4 12-10 14zM728-6h-442v750l62 56 68-60c6-6 18-6 24 0l68 60 66-60c8-6 18-6 24 0l68 60 62-56v-750zM606 274h-206c-10 0-18-8-18-18s8-18 18-18h206c10 0 18 8 18 18s-8 18-18 18zM606 140h-206c-10 0-18-8-18-18s8-18 18-18h206c10 0 18 8 18 18s-8 18-18 18z" />
<glyph unicode="&#xa3;" glyph-name="uniA3" d="M310 494l14 4v-140c0-10 8-20 20-20 10 0 18 10 18 20v164c0 10-8 20-20 20-4 0-8-2-14-4l-30-10c-8-4-12-10-12-18 0-12 12-20 24-16zM498 542c-48 0-86-44-86-104 0-58 36-102 86-102 48 0 86 44 86 104s-36 102-86 102zM498 374c-30 0-46 34-46 66s16 66 46 66c30 0 46-34 46-68 0-32-16-64-46-64zM670 542c-4 0-8-2-14-4l-30-10c-8-4-12-10-12-18 0-12 12-20 24-16l14 4v-140c0-10 8-20 20-20 10 0 18 10 18 20v164c0 10-8 20-20 20zM380 286c-50 0-86-44-86-102 0-60 36-102 86-102 48 0 84 44 84 102 0 60-36 102-84 102zM380 118c-30 0-48 34-48 66 0 34 16 66 48 66 30 0 46-34 46-66s-16-66-46-66zM552 286c-4 0-10-2-14-4l-30-10c-8-2-12-8-12-16 0-12 12-22 24-18l14 6v-142c0-10 8-18 18-18 12 0 20 8 20 18v164c0 12-8 20-20 20zM670 286c-4 0-8-2-14-4l-30-10c-8-2-12-8-12-16 0-12 12-22 24-18l14 6v-142c0-10 8-18 20-18 10 0 18 8 18 18v164c0 12-8 20-20 20zM848 714l-126 124c-8 8-20 14-32 14 0 0 0 0 0 0h-496c-26 0-48-22-48-48v-800c0-26 22-48 48-48h620c26 0 48 22 48 48v676c0 12-6 26-14 34zM814 698h-106v104zM814-8h-620c-8 0-12 6-12 12v800c0 6 4 12 12 12h478v-136c0-10 8-18 18-18h136v-658c0-6-6-12-12-12z" />
<glyph unicode="&#xa4;" glyph-name="uniA4" d="M938 760c-2 8-12 16-20 16h-44l-14 38c-4 10-12 16-22 16s-18-6-22-16l-12-40-44-2c-10 0-18-6-20-16-4-8 0-20 8-24l14-10c-46-6-120 12-172 34-62 28-100-14-112-40l-12-26c-22 4-42 6-62 6-58 0-74-20-78-34 0-2-8-42-14-76-114-30-204-124-228-246-16-82 2-166 50-234 46-70 118-116 200-132 20-4 40-6 58-6 152 0 280 108 308 256 24 122-28 242-122 310l14 78c4 18-10 34-38 50-14 6-32 14-52 18l10 22c2 4 20 40 64 22 42-18 136-48 200-36l-6-22c-2-10 2-20 10-24 4-4 8-6 12-6 6 0 10 2 14 6l34 24 36-24c4-2 8-4 12-4h2c4 0 8 2 12 4 8 6 12 16 8 26l-12 40 34 26c6 6 10 16 6 26zM622 438c42-60 58-134 44-208-26-130-140-226-274-226-16 0-34 2-52 6-72 14-136 54-178 116-40 60-56 134-42 208 24 132 138 226 272 226 18 0 34-2 52-4 74-14 136-56 178-118zM556 616l-10-60c-30 16-62 28-96 34-18 4-38 6-58 6-14 0-28-2-42-2 4 24 10 52 12 58 2 2 16 8 42 8 18 0 38-2 58-6 58-12 90-30 94-38zM856 722l8-30-24 18-24-18 8 28-24 18 30 2 8 28 12-28h30z" />
<glyph unicode="&#xa5;" glyph-name="uniA5" d="M832 706c0 2 0 2 0 4s-2 2-2 2c0 2-2 4-2 4-2 0-2 2-2 2s0 0-2 0c0 2-2 2-4 2 0 0-2 2-2 2s0 0-2 0c-62 6-106 22-122 50-16 24-8 50-8 50 4 6 2 14-2 18-6 6-12 8-18 6l-452-122c-2 0-4-2-6-4-8-2-14-8-14-16v-600c0 0 0 0 0 0 0-6 2-128 168-140 0 0 0 0 0 0 2 0 2 0 2 0s0 0 0 0c2 0 4 0 4 0l452 122c8 2 14 10 14 18v600c0 0-2 0-2 2zM362 600c-30 2-54 10-72 18l394 112c14-12 32-22 52-30zM660 760l-408-114c-16 18-20 38-20 46l416 112c0-12 4-28 12-44zM230 102c0 0 0 0 0 2 0 0 0 0 0 0v512c2 0 2 0 2-2 2 0 2-2 4-4 24-20 58-38 110-44v-564c-114 16-116 98-116 100zM798 116l-416-112v564l416 112z" />
<glyph unicode="&#xa6;" glyph-name="uniA6" d="M282 472c-10 0-18-8-18-18v-46c0-10 8-18 18-18s18 8 18 18v46c0 10-8 18-18 18zM456 472c-10 0-18-8-18-18v-46c0-10 8-18 18-18s18 8 18 18v46c0 10-8 18-18 18zM938 846h-854c-10 0-18-8-18-18v-852c0-10 8-18 18-18s18 8 18 18v86h818v-88c0-10 8-18 18-18s18 8 18 18v854c0 10-8 18-18 18zM920 470h-246v152h246zM674 434h246v-150h-246zM920 810v-152h-246v152zM102 98v712h248v-712zM388 98v712h248v-712zM674 248h246v-150h-246z" />
<glyph unicode="&#xa7;" glyph-name="uniA7" d="M938 106h-60l10 4c10 4 16 14 12 22l-174 586c-2 4-6 8-10 10s-8 2-14 2l-128-40c-10-2-14-12-12-22l22-76c0 0 0 0 0 0h-160v90c0 10-8 18-18 18h-130c-10 0-18-8-18-18v-166h-116c-10 0-18-8-18-18v-392h-26c-10 0-18-8-18-16 0-10 8-18 18-18h840c10 0 18 8 18 18 0 8-8 16-18 16zM696 690l166-550-96-28-164 550zM730 106h-128v428zM160 106v374h96v-374zM294 664h94v-558h-94zM424 106v450h142v-450zM496 518c-26 0-46-20-46-44 0-26 20-46 46-46 24 0 44 20 44 46 0 24-20 44-44 44zM496 464c-6 0-10 4-10 10 0 4 4 8 10 8 4 0 8-4 8-8 0-6-4-10-8-10z" />
<glyph unicode="&#xa8;" glyph-name="uniA8" d="M404 488h-212c-10 0-18-8-18-18s8-18 18-18h212c10 0 18 8 18 18s-8 18-18 18zM404 386h-212c-10 0-18-8-18-18s8-18 18-18h212c10 0 18 8 18 18s-8 18-18 18zM404 282h-212c-10 0-18-8-18-18s8-18 18-18h212c10 0 18 8 18 18s-8 18-18 18zM838 672v62c0 8-4 16-10 22s-14 10-22 10h-168c-18 0-32-14-32-32v-62c-40-6-76-18-96-36-36 32-126 46-210 46-110 0-228-24-228-78v-550c0-6 2-10 6-14 4-2 8-4 12-4 0 0 2 0 2 0 126 22 290 22 416 0 0 0 2 0 2 0 2 0 2 0 4 0 124 22 288 22 414 0 0 0 2 0 2 0 6 0 10 2 12 4 4 4 6 8 6 14v550c0 34-48 56-110 68zM492 74c-58 10-124 14-192 14s-134-4-192-14v530c0 12 68 42 192 42 126 0 192-30 192-42zM642 730h160v-422l-80 80-80-80zM914 74c-120 18-268 18-386 0v530c0 8 28 22 78 32v-338c0-14 8-24 20-30 4-2 8-2 12-2 8 0 16 4 22 10l62 62 62-62c10-10 24-12 34-8 4 2 8 4 10 8 6 6 10 12 10 22v338c50-10 76-26 76-32v-530z" />
<glyph unicode="&#xa9;" glyph-name="uniA9" d="M760 826c-10 10-24 16-36 16h-426c-28 0-52-22-52-52v-782c0-22 12-40 32-48 18-8 42-4 56 12l176 176 176-176c10-10 24-16 38-16 6 0 12 2 18 4 8 2 12 6 18 12 10 8 14 22 14 36v782c0 14-6 28-14 36zM738 8c0-4 0-8-4-12-2-2-2-2-4-4-6-2-14 0-18 4l-190 188c-2 4-8 6-12 6s-8-2-12-6l-190-188c-4-4-10-6-16-4-6 4-10 10-10 16v782c0 10 8 16 16 16h426c4 0 8-2 10-4 4-4 4-8 4-12z" />
<glyph unicode="&#xaa;" glyph-name="uniAA" d="M798 498v140l22 86c0 2 0 4 0 6s0 4 0 6c0 56-46 102-104 102-56 0-102-46-102-102 0-4 0-6 0-8 0 0 0-2 0-2v-2c0-2 0-2 0-4l22-82v-138c-8-16-34-70-48-122-2-10 2-20 12-22 10-4 20 2 22 12 12 44 34 90 42 108h104c140-294 30-452 4-482h-114c-6 10-18 32-32 74-4 10-14 14-24 12-8-4-14-14-10-22 24-78 44-92 50-96 2-2 6-4 10-4h128c4 0 10 2 12 6 8 6 176 182 6 534zM672 512v108h90v-108zM784 730l-18-74h-98l-18 74c0 2 0 4 0 6 0 36 30 66 66 66 38 0 68-30 68-66 0-2 0-4 0-6zM328 478c-142 0-260-116-260-260s118-260 260-260c144 0 260 116 260 260s-116 260-260 260zM328-6c-122 0-224 100-224 224s102 224 224 224c124 0 226-100 226-224s-102-224-226-224zM180 346c-22-14-28-44-12-66 8-14 24-20 40-20 10 0 18 2 26 8 12 8 18 18 20 30 2 14 0 26-8 36-14 22-46 28-66 12zM214 298c-6-4-14-2-16 2-4 6-4 14 2 18 2 0 4 2 8 2s6-2 10-6c0-2 2-6 2-8-2-4-4-6-6-8zM304 326c10 0 20 2 28 8 22 16 28 46 12 68-14 20-46 26-66 12-22-16-28-46-12-68 8-12 22-20 38-20zM298 384c2 2 4 2 6 2 4 0 8-2 10-6 4-4 4-12-2-16s-14-2-18 2c-4 6-2 14 4 18zM284 300c-12-6-18-18-20-30s0-26 8-36c8-14 24-20 38-20 10 0 20 2 28 8 22 16 28 46 12 66-14 22-46 28-66 12zM318 252c-6-4-14-2-18 2-2 4-2 6-2 10 2 2 4 6 6 8 2 0 4 2 6 2 4 0 8-2 10-6 4-6 4-12-2-16z" />
<glyph unicode="&#xab;" glyph-name="uniAB" d="M950 336c0 0 0 2-2 4 0 0 0 2 0 2-2 2-2 2-2 2l-162 194c-2 4-8 6-14 6h-532c-4 0-10-2-14-6l-160-194c-2 0-2 0-2-2 0 0-2-2-2-2 0-2 0-4 0-4 0-2 0-2 0-4v-294c0-48 38-88 86-88h718c48 0 86 40 86 88v294c0 2 0 2 0 4zM246 508h516l132-158h-232c-10 0-18-8-18-18v-78c0-24-20-44-44-44h-190c-24 0-44 20-44 44v78c0 10-8 18-18 18h-232zM914 38c0-28-22-52-50-52h-718c-28 0-50 24-50 52v278h234v-62c0-44 36-80 80-80h190c44 0 80 36 80 80v62h234z" />
<glyph unicode="&#xac;" glyph-name="uniAC" d="M956 622c0 2 0 4 0 4 0 2-2 2-2 4 0 0 0 2-2 2l-160 194c-4 4-8 6-14 6h-532c-6 0-12-2-14-6l-162-194c0 0 0-2 0-2-2-2-2-2-2-4-2 0-2-2-2-4 0 0 0 0 0-2v-582c0-48 40-88 88-88h716c48 0 86 40 86 88v582c0 2 0 2 0 2zM354 220h-252v180h234v-60c0-46 36-82 80-82h190c44 0 80 36 80 82v60h234v-180h-252c-10 0-18-8-18-18v-78c0-26-20-44-44-44h-190c-24 0-44 18-44 44v78c0 10-8 18-18 18zM416 462h190c44 0 80 36 80 80v60h234v-166h-252c-10 0-18-8-18-18v-78c0-26-20-46-44-46h-190c-24 0-44 20-44 46v78c0 10-8 18-18 18h-252v166h234v-60c0-44 36-80 80-80zM254 796h516l130-158h-232c-10 0-18-8-18-18v-78c0-24-20-44-44-44h-190c-24 0-44 20-44 44v78c0 10-8 18-18 18h-232zM870-14h-716c-30 0-52 24-52 52v146h234v-60c0-44 36-80 80-80h190c44 0 80 36 80 80v60h234v-146c0-28-22-52-50-52z" />
<glyph unicode="&#xad;" glyph-name="uniAD" d="M958 336c0 0 0 2 0 4 0 0-2 2-2 2 0 2 0 2-2 2l-160 194c-4 4-10 6-14 6h-186c-10 0-18-8-18-18s8-18 18-18h178l130-158h-232c-10 0-18-8-18-18v-78c0-24-20-44-44-44h-190c-24 0-44 20-44 44v78c0 10-8 18-18 18h-232l132 158h178c10 0 18 8 18 18s-8 18-18 18h-188c-4 0-10-2-12-6l-162-194c0 0 0 0-2-2 0 0 0-2 0-2-2-2-2-4-2-4 0-2 0-2 0-4v-294c0-48 38-88 86-88h718c48 0 86 40 86 88v294c0 2 0 2 0 4zM922 38c0-28-22-52-50-52h-718c-28 0-50 24-50 52v278h234v-62c0-44 36-80 80-80h190c44 0 80 36 80 80v62h234zM402 674l94 94v-454c0-10 8-18 18-18s18 8 18 18v454l92-94c4-2 8-4 14-4 4 0 8 2 12 4 6 8 6 20 0 26l-124 124c-2 2-4 4-6 4-4 2-10 2-14 0-2 0-4-2-6-4l-124-124c-6-6-6-18 0-26 8-6 20-6 26 0z" />
<glyph unicode="&#xae;" glyph-name="uniAE" d="M960 336c0 0 0 2 0 4-2 0-2 2-2 2-2 2-2 2-2 2l-160 194c-4 4-10 6-14 6h-186c-10 0-18-8-18-18s8-18 18-18h176l132-158h-232c-10 0-18-8-18-18v-78c0-24-20-44-44-44h-190c-24 0-44 20-44 44v78c0 10-8 18-18 18h-232l132 158h176c10 0 18 8 18 18s-8 18-18 18h-186c-4 0-10-2-14-6l-160-194c0 0-2 0-2-2 0 0 0-2-2-2 0-2 0-4 0-4 0-2 0-2 0-4v-294c0-48 38-88 86-88h718c48 0 86 40 86 88v294c0 2 0 2 0 4zM924 38c0-28-22-52-50-52h-718c-28 0-50 24-50 52v278h234v-62c0-44 36-80 80-80h190c44 0 80 36 80 80v62h234zM404 452c-8 6-18 6-26 0-6-8-6-20 0-26l124-124c2-2 4-2 6-4 2 0 4-2 6-2 4 0 6 2 8 2 2 2 4 2 6 4l124 124c6 6 6 18 0 26-8 6-18 6-26 0l-94-94v454c0 10-8 18-18 18-8 0-18-8-18-18v-454z" />
<glyph unicode="&#xaf;" glyph-name="uniAF" d="M782 568c0 2 0 2 0 4 2 4 2 8 2 14 0 16-14 38-22 46-2 2-8 8-10 10 0 16-12 34-36 34 0 2 0 2 0 2-2 4-4 10-8 14-2 0-2 2-2 2-6 8-16 20-30 20-2 0-4 0-6 0-4 4-10 12-20 16-2 0-2 0-4 2-8 2-22 6-36 2 0 4-2 10-6 14-12 10-38 12-50 0-2 0-6 2-8 4-6 6-16 8-26 8-6 0-22 0-30-10-4-2-16-6-26-6-6 0-30-2-42-14-2-2-4-4-4-8-6-4-24-18-38-22s-32-18-30-48c0 0-2-8-18-26-12-14-12-24-12-34 0-2 2-4 0-6 0-6 0-12 0-16 0-2 0-6-4-14-6-22 10-52 14-58l4-6 6-2c4 0 10-4 12-6 0-16 12-28 28-28 6 0 12 2 16 2 2 0 2 2 4 2 4 0 14-4 28-16 8-8 16-16 28-16 10 0 16 6 22 10 2 0 4 2 6 4 2 0 2 0 2 0 2 0 2-2 4-4l4-2c16-16 44-14 56 0 2 0 6 2 22 2h-2c-2-10-2-18 2-26 4-2 8-8 20-8 4 0 8 0 12 2 2-4 4-8 6-14 8-12 20-18 28-24 4-2 6-4 10-6 6-6 12-8 18-8 0 0 0 0 0 0 14 0 24 14 32 26 2 4 6 8 8 12 8 8 18 12 34 12 12 0 20 4 24 10 8 10 6 22 6 28 0 2-2 2-2 4 0 10 0 14 4 18 6 8 24 28 10 46 0 2 2 2 4 4 14 16 8 40-4 54zM750 494c-2-2-4-4-6-6-12-14-12-32-12-44 0 0 2-2 2-4-24-2-42-10-54-26-4-4-8-8-12-14 0-2-2-4-4-6-2 2-6 4-8 6-8 4-12 6-14 12-4 4-6 8-8 12-4 6-10 18-24 18 2 8 2 16-2 22-4 4-10 10-24 10 0 0 0 0 0 0h-12c-18 0-38 0-48-14-2-2-4 0-6 0l-2 4c-6 6-16 14-28 14-8 0-14-2-22-6-4-2-6-4-10-6 0 0 0 0 0 0s-2 2-2 2c-18 18-38 28-56 28 0 0 0 0 0 0-2 0-6-2-10-2 0 0 0 0-2 0-4 14-18 24-28 28-4 10-8 20-6 26 2 10 2 16 4 22 0 2 0 6 0 10 2 8 0 12 0 16 0 2 0 2 0 2s0 2 2 4c20 22 28 36 28 50 0 12 2 14 6 14 0 0 44 18 58 40 4 0 10 2 16 2 0 0 34 2 48 16 2 0 6 2 8 0 8-6 20-14 32-14 10 0 18 4 24 10 2-8 8-24 26-24 6 0 10 0 14 4 4 0 4 0 6 0s4 0 8-2c2 0 4-2 6-2 0-2 2-2 2-4 6-6 12-16 26-16 2 0 6 0 8 0 0 0 2-2 2-2 2-4 4-6 6-8 0 0 0-2 0-2 4-6 12-24 34-22 0-2 0-2 0-4 2-12 12-24 20-32 6-4 12-16 12-22 0 0 0-2 0-4-2-8-6-22 6-36 4-2 4-6 4-6s0 0 0 0c-18-20-16-36-8-44zM870 622c-26 180-268 220-310 220h-14c-294 0-334-202-338-264-6-42-24-122-54-152-10-8-32-32-20-58 10-26 38-28 54-28 0-4 0-8-2-10-2-6-4-12-4-22 0-12 6-24 16-32-6-14-2-30 12-42 0-2 0-8 0-28 0-60 58-88 104-80h6c8 2 18 4 28 4 12 0 16-4 18-8 6-6 10-12 16-18 14-16 22-26 22-68 0-36 6-52 8-58l2-4c2-8 10-12 16-12 2 0 4 0 6 0l304 90c8 2 14 12 12 20-8 58 0 156 46 238 12 22 22 40 30 56 54 92 64 108 42 256zM798 382c-10-14-20-32-32-54-46-84-56-180-50-246l-274-80c0 8-2 18-2 34 0 52-12 70-32 92-4 6-8 10-14 16-14 18-32 20-46 20-12 0-24 0-34-2l-4-2c-28-4-64 10-64 46 0 34-2 42-12 54-2 2-4 4 0 10 2 2 2 4 4 6 2 4 2 10 0 16-2 4-6 8-12 10-8 2-8 4-8 6 0 4 2 6 2 12 2 6 6 16 8 36 0 8-6 16-14 18-6 2-16 2-24 2-12 0-22 0-24 4 0 4 4 12 14 22 48 48 62 172 64 174 16 214 236 230 302 230h14c32 0 252-34 274-188 20-136 14-148-36-236z" />
<glyph unicode="&#xb0;" glyph-name="uniB0" d="M940 722c-8 4-18-2-22-12l-12-46h-674l14 58c0 2 0 4 0 8-6 22-26 38-50 38h-110c-10 0-18-8-18-18s8-18 18-18h110c6 0 10-2 14-8l-18-74c0 0 0 0 0 0 0-2 0-6 0-8 0 0 0 0 0 0s0 0 0 0l76-336-20-62c0 0 0 0 0-2-2-12 2-26 10-36s20-16 34-16h534c10 0 18 8 18 18s-8 18-18 18h-534c-2 0-4 0-6 2s-2 4-2 6l16 56 520 56c22 0 42 16 46 38l88 316c2 10-4 20-14 22zM832 392c-2-6-8-10-14-10 0 0 0 0-2 0l-514-56-70 302h664zM322 144c-40 0-72-32-72-72s32-72 72-72c40 0 72 32 72 72s-32 72-72 72zM322 36c-20 0-36 16-36 36s16 36 36 36c20 0 36-16 36-36s-16-36-36-36zM752 144c-40 0-74-32-74-72s34-72 74-72c40 0 72 32 72 72s-32 72-72 72zM752 36c-20 0-38 16-38 36s18 36 38 36c20 0 36-16 36-36s-16-36-36-36z" />
<glyph unicode="&#xb1;" glyph-name="uniB1" d="M942 722c-10 4-20-2-22-12l-12-44h-250c-10 0-18-8-18-18s8-18 18-18h240l-64-238c-2-6-8-10-14-10 0 0-2 0-2 0l-516-56-70 304h234c10 0 18 8 18 18s-8 18-18 18h-232l12 56c2 2 2 4 0 8-4 22-24 38-48 38h-112c-8 0-18-8-18-18s10-18 18-18h112c6 0 10-2 12-8l-16-68c0-2-2-4-2-8 0 0 2 0 2-2 0 0 0 0 0 0 0-2-2-2 0-4 0 0 0 0 0 0l76-336-20-62c0 0 0 0 0-2-2-12 0-26 8-36 10-10 22-16 36-16h534c10 0 18 8 18 18s-8 18-18 18h-534c-4 0-6 0-8 2 0 2-2 4-2 6l18 56 518 56c24 0 42 16 48 38l86 316c4 10-2 20-12 22zM324 144c-40 0-72-32-72-72s32-72 72-72c40 0 72 32 72 72s-32 72-72 72zM324 36c-20 0-36 16-36 36s16 36 36 36c20 0 36-16 36-36s-16-36-36-36zM752 144c-40 0-72-32-72-72s32-72 72-72c40 0 72 32 72 72s-32 72-72 72zM752 36c-20 0-36 16-36 36s16 36 36 36c20 0 36-16 36-36s-16-36-36-36zM462 564c-8 6-18 6-26 0-6-8-6-18 0-26l114-112c0-2 2-4 6-4 2-2 4-2 6-2s4 0 6 2c4 0 6 2 6 4l114 112c6 8 6 18 0 26-8 6-18 6-26 0l-82-82v372c0 10-8 18-18 18s-18-8-18-18v-372z" />
</font>
</defs>
</svg>
